<?xml version="1.0" standalone="no"?>
<!DOCTYPE svg PUBLIC "-//W3C//DTD SVG 1.1//EN" "http://www.w3.org/Graphics/SVG/1.1/DTD/svg11.dtd" >
<svg xmlns="http://www.w3.org/2000/svg" xmlns:xlink="http://www.w3.org/1999/xlink" version="1.1">
<metadata>
Created by FontForge 20190801 at Wed Feb 17 19:22:01 2010
 By Jimmy Wärting
Part of the Neutraface collection from House Industries
</metadata>
<defs>
<font id="NeutrafaceTextGreek-Bold" horiz-adv-x="800" >
  <font-face 
    font-family="Neutraface Text Greek Book"
    font-weight="700"
    font-stretch="normal"
    units-per-em="1000"
    panose-1="2 0 8 3 4 0 0 2 0 4"
    ascent="780"
    descent="-220"
    x-height="426"
    cap-height="680"
    bbox="-392 -240 1199 936"
    underline-thickness="20"
    underline-position="-133"
    stemh="123"
    stemv="137"
    unicode-range="U+0020-FB04"
  />
<missing-glyph horiz-adv-x="221" 
 />
    <glyph glyph-name=".notdef" horiz-adv-x="221" 
 />
    <glyph glyph-name=".notdef" horiz-adv-x="221" 
 />
    <glyph glyph-name="onesuperior" unicode="&#xb9;" horiz-adv-x="243" 
d="M125 173c-46 0 -85 35 -85 85c0 49 39 84 85 84c45 0 84 -35 84 -84c0 -50 -39 -85 -84 -85z" />
    <glyph glyph-name="threesuperior" unicode="&#xb3;" horiz-adv-x="243" 
d="M125 173c-46 0 -85 35 -85 85c0 49 39 84 85 84c45 0 84 -35 84 -84c0 -50 -39 -85 -84 -85z" />
    <glyph glyph-name="twosuperior" unicode="&#xb2;" horiz-adv-x="243" 
d="M125 173c-46 0 -85 35 -85 85c0 49 39 84 85 84c45 0 84 -35 84 -84c0 -50 -39 -85 -84 -85z" />
    <glyph glyph-name="brokenbar" unicode="&#xa6;" horiz-adv-x="243" 
d="M125 173c-46 0 -85 35 -85 85c0 49 39 84 85 84c45 0 84 -35 84 -84c0 -50 -39 -85 -84 -85z" />
    <glyph glyph-name="space" unicode=" " horiz-adv-x="221" 
 />
    <glyph glyph-name="exclam" unicode="!" horiz-adv-x="283" 
d="M88 231l-22 449h151l-22 -449h-107zM142 -6c-46 0 -85 35 -85 85c0 49 39 84 85 84c45 0 84 -35 84 -84c0 -50 -39 -85 -84 -85z" />
    <glyph glyph-name="quotedbl" unicode="&#x22;" horiz-adv-x="408" 
d="M243 433l-16 247h145l-15 -247h-114zM51 433l-15 247h144l-15 -247h-114z" />
    <glyph glyph-name="numbersign" unicode="#" horiz-adv-x="526" 
d="M61 142l25 101h-54v102h79l19 75h-54v102h79l25 97h105l-25 -97h75l25 97h105l-24 -97h53v-102h-78l-19 -75h53v-102h-79l-25 -101h-105l25 101h-75l-25 -101h-105zM217 345h75l19 75h-75z" />
    <glyph glyph-name="dollar" unicode="$" horiz-adv-x="502" 
d="M218 -7c-117 10 -177 70 -204 122l99 56c19 -33 47 -64 105 -73c0 0 0 116 0 115c-127 30 -174 88 -174 163s53 147 174 154v101h67v-103c76 -12 126 -53 153 -88l-87 -66c-10 16 -31 38 -66 49v-100c122 -28 186 -84 186 -168c0 -98 -59 -156 -186 -163v-108h-67v109z
M218 429c-39 -4 -52 -21 -52 -42c0 -22 7 -36 52 -48v90zM285 96c50 6 61 25 61 45c0 22 -10 43 -61 57v-102z" />
    <glyph glyph-name="percent" unicode="%" horiz-adv-x="855" 
d="M189 217c-90 0 -164 65 -164 157c0 91 74 157 164 157c89 0 163 -66 163 -157c0 -92 -74 -157 -163 -157zM196 0l330 522h133l-330 -522h-133zM667 -9c-90 0 -164 65 -164 157c0 91 74 157 164 157c89 0 163 -66 163 -157c0 -92 -74 -157 -163 -157zM189 318
c26 0 52 21 52 56s-26 56 -52 56s-52 -21 -52 -56s26 -56 52 -56zM667 92c26 0 52 21 52 56s-26 56 -52 56s-52 -21 -52 -56s26 -56 52 -56z" />
    <glyph glyph-name="ampersand" unicode="&#x26;" horiz-adv-x="695" 
d="M378 367l107 -133c15 35 24 77 24 127h126c0 -91 -25 -169 -67 -230l106 -131h-165l-34 42c-51 -33 -111 -51 -175 -51c-169 0 -264 84 -264 200c0 98 50 148 157 201c-34 46 -47 89 -47 135c0 88 67 161 180 161c108 0 176 -63 176 -158c0 -65 -38 -118 -124 -163z
M312 448c50 28 68 52 68 83s-21 49 -52 49s-54 -21 -54 -51c0 -35 17 -54 36 -78zM399 136l-143 177c-59 -32 -74 -67 -74 -111c0 -57 36 -90 118 -90c36 0 69 8 99 24z" />
    <glyph glyph-name="quotesingle" unicode="'" horiz-adv-x="216" 
d="M51 433l-15 247h144l-15 -247h-114z" />
    <glyph glyph-name="parenleft" unicode="(" horiz-adv-x="344" 
d="M238 -137c-88 85 -189 219 -189 428c0 208 101 343 189 428l81 -65c-80 -97 -128 -204 -128 -363c0 -158 48 -266 128 -363z" />
    <glyph glyph-name="parenright" unicode=")" horiz-adv-x="344" 
d="M106 -137l-81 65c80 97 128 204 128 363c0 158 -48 266 -128 363l81 65c88 -85 189 -219 189 -428c0 -208 -101 -343 -189 -428z" />
    <glyph glyph-name="asterisk" unicode="*" horiz-adv-x="425" 
d="M153 360l29 111l-82 -82l-58 100l113 31l-113 31l58 100l82 -82l-29 111h118l-29 -111l82 82l59 -100l-116 -31l116 -31l-59 -100l-82 82l29 -111h-118z" />
    <glyph glyph-name="plus" unicode="+" horiz-adv-x="411" 
d="M145 97v110h-106v118h106v110h121v-110h106v-118h-106v-110h-121z" />
    <glyph glyph-name="comma" unicode="," horiz-adv-x="249" 
d="M52 -115l38 120c-30 14 -50 40 -50 76c0 47 39 82 85 82c45 0 84 -35 84 -84c0 -33 -15 -58 -30 -85l-59 -109h-68z" />
    <glyph glyph-name="hyphen" unicode="-" horiz-adv-x="302" 
d="M36 182v120h230v-120h-230z" />
    <glyph glyph-name="period" unicode="." horiz-adv-x="249" 
d="M125 -6c-46 0 -85 35 -85 85c0 49 39 84 85 84c45 0 84 -35 84 -84c0 -50 -39 -85 -84 -85z" />
    <glyph glyph-name="slash" unicode="/" horiz-adv-x="404" 
d="M-16 -128l279 850h132l-279 -850h-132z" />
    <glyph glyph-name="zero" unicode="0" horiz-adv-x="625" 
d="M312 -9c-144 0 -277 113 -277 271c0 159 133 269 277 269c145 0 278 -110 278 -269c0 -158 -133 -271 -278 -271zM312 111c76 0 135 58 135 151s-59 149 -135 149c-75 0 -134 -56 -134 -149s59 -151 134 -151z" />
    <glyph glyph-name="one" unicode="1" horiz-adv-x="331" 
d="M126 0v410h-100v112h237v-522h-137z" />
    <glyph glyph-name="two" unicode="2" horiz-adv-x="481" 
d="M21 0v12l199 211c57 60 84 86 84 129c0 34 -25 57 -63 57c-46 0 -72 -36 -87 -80l-126 34c24 107 109 168 212 168c140 0 204 -83 204 -170c0 -64 -44 -124 -105 -189l-15 -16c-19 -20 -60 -46 -60 -46s51 5 69 5h116v-115h-428z" />
    <glyph glyph-name="three" unicode="3" horiz-adv-x="524" 
d="M250 -103c-127 0 -197 65 -234 140l117 61c22 -57 62 -81 117 -81s98 38 98 103s-50 101 -113 101c-44 0 -67 -8 -86 -18l-10 12l116 161c16 22 36 39 36 39s-32 -5 -61 -5h-158v112h409v-11l-124 -170c-14 -19 -27 -30 -27 -30c84 -17 161 -84 161 -194
c0 -111 -79 -220 -241 -220z" />
    <glyph glyph-name="four" unicode="4" horiz-adv-x="554" 
d="M450 104h69v-104h-69v-94h-136v94h-289v92l411 436h14v-424zM314 104v88c0 22 5 62 5 62s-16 -22 -34 -41l-72 -76c-19 -20 -41 -36 -41 -36s24 3 52 3h90z" />
    <glyph glyph-name="five" unicode="5" horiz-adv-x="507" 
d="M240 -103c-123 0 -196 64 -224 132l118 59c15 -39 44 -71 104 -71c58 0 92 40 92 91c0 55 -36 93 -105 93c-60 0 -103 -25 -133 -49l-12 5v365h340v-112h-228v-110c13 8 43 15 73 15c126 0 209 -93 209 -208c0 -112 -75 -210 -234 -210z" />
    <glyph glyph-name="six" unicode="6" horiz-adv-x="532" 
d="M267 -9c-126 0 -232 84 -232 208c0 75 31 135 84 208l146 202h152l-123 -169c-22 -30 -63 -61 -63 -61c22 11 45 17 75 17c107 0 191 -74 191 -194c0 -131 -103 -211 -230 -211zM266 110c59 0 93 44 93 92s-34 92 -93 92s-93 -44 -93 -92s34 -92 93 -92z" />
    <glyph glyph-name="seven" unicode="7" horiz-adv-x="486" 
d="M58 -94l221 504h-250v112h431v-11l-263 -605h-139z" />
    <glyph glyph-name="eight" unicode="8" horiz-adv-x="540" 
d="M270 -10c-136 0 -235 82 -235 199c0 82 49 135 118 161c-39 22 -71 57 -71 113c0 75 68 155 189 155c122 0 187 -80 187 -155c0 -56 -31 -91 -70 -113c69 -26 117 -79 117 -161c0 -117 -97 -199 -235 -199zM271 399c31 0 54 22 54 54c0 33 -23 54 -54 54s-56 -21 -56 -54
c0 -32 25 -54 56 -54zM270 110c58 0 93 39 93 90s-35 94 -93 94s-93 -43 -93 -94s35 -90 93 -90z" />
    <glyph glyph-name="nine" unicode="9" horiz-adv-x="532" 
d="M114 -94l124 176c23 33 63 61 63 61c-22 -11 -40 -18 -69 -18c-110 0 -197 75 -197 195c0 131 103 211 230 211c126 0 232 -77 232 -208c0 -75 -30 -131 -84 -208l-147 -209h-152zM266 228c59 0 93 44 93 92s-34 92 -93 92s-93 -44 -93 -92s34 -92 93 -92z" />
    <glyph glyph-name="colon" unicode=":" horiz-adv-x="259" 
d="M130 224c-46 0 -85 35 -85 85c0 49 39 84 85 84c45 0 84 -35 84 -84c0 -50 -39 -85 -84 -85zM130 -6c-46 0 -85 35 -85 85c0 49 39 84 85 84c45 0 84 -35 84 -84c0 -50 -39 -85 -84 -85z" />
    <glyph glyph-name="semicolon" unicode=";" horiz-adv-x="259" 
d="M130 224c-46 0 -85 35 -85 85c0 49 39 84 85 84c45 0 84 -35 84 -84c0 -50 -39 -85 -84 -85zM57 -115l38 120c-30 14 -50 40 -50 76c0 47 39 82 85 82c45 0 84 -35 84 -84c0 -33 -15 -58 -30 -85l-59 -109h-68z" />
    <glyph glyph-name="less" unicode="&#x3c;" horiz-adv-x="358" 
d="M321 72l-298 167v10l298 165v-117l-107 -54l107 -54v-117z" />
    <glyph glyph-name="equal" unicode="=" horiz-adv-x="405" 
d="M36 279v115h333v-115h-333zM36 115v115h333v-115h-333z" />
    <glyph glyph-name="greater" unicode="&#x3e;" horiz-adv-x="358" 
d="M37 72v117l107 54l-107 54v117l298 -167v-10z" />
    <glyph glyph-name="question" unicode="?" horiz-adv-x="513" 
d="M174 231v159h46c82 0 112 45 112 95c0 42 -32 84 -84 84c-55 0 -82 -25 -106 -65l-108 63c36 79 109 122 214 122c143 0 222 -99 222 -204c0 -107 -60 -179 -170 -195v-59h-126zM236 -6c-46 0 -85 35 -85 85c0 49 39 84 85 84c45 0 84 -35 84 -84c0 -50 -39 -85 -84 -85z
" />
    <glyph glyph-name="at" unicode="@" horiz-adv-x="925" 
d="M477 -207c-250 0 -438 151 -438 404c0 247 204 411 432 411c248 0 415 -148 415 -372c0 -156 -67 -241 -185 -241c-66 0 -115 19 -139 77c-29 -57 -78 -81 -136 -81c-98 0 -175 81 -175 199c0 117 76 201 173 201c56 0 88 -24 108 -60l-2 50h130v-225
c0 -44 13 -63 46 -63c42 0 66 41 66 141c0 189 -117 272 -301 272c-183 0 -309 -122 -309 -308c0 -185 110 -303 313 -303c55 0 111 11 159 28l42 -94c-63 -25 -119 -36 -199 -36zM464 100c40 0 69 40 69 90s-29 90 -69 90c-46 0 -75 -36 -75 -90s29 -90 75 -90z" />
    <glyph glyph-name="A" unicode="A" horiz-adv-x="664" 
d="M21 0l299 686h12l311 -686h-147l-32 77h-276l-32 -77h-135zM235 194h179l-49 118c-20 48 -41 122 -41 122s-20 -74 -40 -122z" />
    <glyph glyph-name="B" unicode="B" horiz-adv-x="610" 
d="M71 0v680h263c127 0 198 -80 198 -176c0 -63 -37 -106 -96 -125c93 -22 138 -84 138 -169c0 -121 -86 -210 -228 -210h-275zM211 429h108c45 0 75 25 75 64s-25 64 -68 64h-115v-128zM211 123h129c57 0 93 38 93 94c0 55 -37 93 -101 93h-121v-187z" />
    <glyph glyph-name="C" unicode="C" horiz-adv-x="715" 
d="M398 -9c-195 0 -350 148 -350 349s155 348 350 348c123 0 211 -44 272 -139l-107 -76c-32 52 -87 89 -165 89c-123 0 -206 -95 -206 -222s83 -224 206 -224c88 0 137 42 175 100l109 -75c-59 -92 -153 -150 -284 -150z" />
    <glyph glyph-name="D" unicode="D" horiz-adv-x="685" 
d="M71 0v680h209c209 0 358 -139 358 -340s-148 -340 -358 -340h-209zM211 123h62c151 0 220 90 220 217s-69 217 -220 217h-62v-434z" />
    <glyph glyph-name="E" unicode="E" horiz-adv-x="594" 
d="M71 0v680h450v-123h-310v-216h273v-120h-273v-98h324v-123h-464z" />
    <glyph glyph-name="F" unicode="F" horiz-adv-x="556" 
d="M71 0v680h438v-123h-298v-225h271v-125h-271v-207h-140z" />
    <glyph glyph-name="G" unicode="G" horiz-adv-x="739" 
d="M417 -9c-222 0 -369 148 -369 349s142 348 347 348c111 0 191 -30 247 -94l-95 -94c-34 35 -73 62 -152 62c-123 0 -203 -95 -203 -222s82 -224 225 -224c44 0 98 8 133 25v100h-164v123h292v-294c-39 -32 -137 -79 -261 -79z" />
    <glyph glyph-name="H" unicode="H" horiz-adv-x="713" 
d="M71 0v680h140v-348h291v348h140v-680h-140v207h-291v-207h-140z" />
    <glyph glyph-name="I" unicode="I" horiz-adv-x="287" 
d="M74 0v680h140v-680h-140z" />
    <glyph glyph-name="J" unicode="J" horiz-adv-x="496" 
d="M223 -9c-112 0 -177 58 -210 128l114 69c22 -39 42 -72 90 -72c46 0 75 18 75 88v476h140v-478c0 -145 -85 -211 -209 -211z" />
    <glyph glyph-name="K" unicode="K" horiz-adv-x="649" 
d="M202 331c16 36 37 78 58 106l180 243h159l-228 -308l256 -372h-169l-181 267l-66 -79v-188h-140v680h140v-235c0 -33 -5 -80 -9 -114z" />
    <glyph glyph-name="L" unicode="L" horiz-adv-x="561" 
d="M71 0v680h140v-557h308v-123h-448z" />
    <glyph glyph-name="M" unicode="M" horiz-adv-x="830" 
d="M71 0v687h11l335 -368l330 368h12v-687h-135v255c0 46 5 119 5 119s-41 -60 -73 -96l-135 -151h-13l-135 151c-32 36 -73 96 -73 96s5 -73 5 -119v-255h-134z" />
    <glyph glyph-name="N" unicode="N" horiz-adv-x="701" 
d="M616 -6l-343 322c-34 32 -81 93 -81 93s10 -75 10 -124v-285h-131v686h14l343 -322c33 -31 80 -93 80 -93s-9 77 -9 124v285h131v-686h-14z" />
    <glyph glyph-name="O" unicode="O" 
d="M400 -9c-196 0 -352 148 -352 349s156 349 352 349s352 -148 352 -349s-156 -349 -352 -349zM400 116c124 0 208 97 208 224s-84 224 -208 224s-208 -97 -208 -224s84 -224 208 -224z" />
    <glyph glyph-name="P" unicode="P" horiz-adv-x="601" 
d="M71 0v680h188c190 0 304 -99 304 -263s-115 -262 -304 -262h-48v-155h-140zM211 278h44c114 0 164 46 164 139c0 94 -52 140 -164 140h-44v-279z" />
    <glyph glyph-name="Q" unicode="Q" 
d="M656 96l95 -109l-93 -77l-101 116c-47 -22 -100 -35 -157 -35c-196 0 -352 148 -352 349s156 349 352 349s352 -148 352 -349c0 -97 -36 -182 -96 -244zM469 126l-81 93l94 77l86 -99c26 37 40 86 40 143c0 127 -84 224 -208 224s-208 -97 -208 -224s84 -224 208 -224
c25 0 48 3 69 10z" />
    <glyph glyph-name="R" unicode="R" horiz-adv-x="614" 
d="M432 212l141 -212h-162l-112 172c-13 -2 -27 -3 -40 -3h-48v-169h-140v680h188c190 0 304 -91 304 -257c0 -106 -47 -173 -131 -211zM211 291h44c114 0 164 36 164 132s-52 134 -164 134h-44v-266z" />
    <glyph glyph-name="S" unicode="S" horiz-adv-x="537" 
d="M267 -9c-130 0 -214 62 -255 143l114 66c30 -49 69 -85 138 -85c58 0 95 29 95 69c0 48 -38 65 -102 93l-35 15c-101 43 -168 97 -168 211c0 105 80 185 205 185c89 0 153 -31 199 -112l-109 -70c-24 43 -50 60 -90 60c-41 0 -67 -26 -67 -60c0 -42 26 -59 86 -85l35 -15
c119 -51 186 -103 186 -220c0 -126 -99 -195 -232 -195z" />
    <glyph glyph-name="T" unicode="T" horiz-adv-x="592" 
d="M226 0v557h-194v123h528v-123h-194v-557h-140z" />
    <glyph glyph-name="U" unicode="U" horiz-adv-x="686" 
d="M344 -9c-157 0 -276 83 -276 255v434h140v-426c0 -99 43 -137 136 -137c92 0 134 38 134 137v426h140v-434c0 -172 -119 -255 -274 -255z" />
    <glyph glyph-name="V" unicode="V" horiz-adv-x="664" 
d="M331 -6l-310 686h150l117 -262c26 -58 53 -154 53 -154s26 95 52 154l114 262h136l-298 -686h-14z" />
    <glyph glyph-name="W" unicode="W" horiz-adv-x="958" 
d="M273 -6l-251 686h148l99 -273c17 -47 36 -123 36 -123s20 77 42 123l131 279h14l133 -279c22 -46 42 -123 42 -123s19 76 36 123l98 273h136l-247 -686h-14l-153 328c-18 38 -38 101 -38 101s-21 -63 -39 -101l-159 -328h-14z" />
    <glyph glyph-name="X" unicode="X" horiz-adv-x="660" 
d="M27 0l222 374l-185 306h159l69 -117c20 -34 45 -93 45 -93s19 58 39 93l66 117h149l-182 -307l226 -373h-160l-107 181c-21 35 -47 96 -47 96s-21 -60 -42 -96l-105 -181h-147z" />
    <glyph glyph-name="Y" unicode="Y" horiz-adv-x="682" 
d="M279 0v216l-258 464h155l120 -219c26 -48 55 -129 55 -129s27 80 53 129l115 219h143l-242 -454v-226h-141z" />
    <glyph glyph-name="Z" unicode="Z" horiz-adv-x="590" 
d="M27 0v12l312 545h-257v123h473v-12l-311 -545h294v-123h-511z" />
    <glyph glyph-name="bracketleft" unicode="[" horiz-adv-x="337" 
d="M60 -128v850h247v-114h-112v-622h112v-114h-247z" />
    <glyph glyph-name="backslash" unicode="\" horiz-adv-x="404" 
d="M288 -128l-279 850h132l279 -850h-132z" />
    <glyph glyph-name="bracketright" unicode="]" horiz-adv-x="337" 
d="M30 -128v114h112v622h-112v114h247v-850h-247z" />
    <glyph glyph-name="asciicircum" unicode="^" horiz-adv-x="439" 
d="M54 447l160 240h11l160 -240h-108l-58 71l-57 -71h-108z" />
    <glyph glyph-name="underscore" unicode="_" horiz-adv-x="283" 
d="M-2 -128v120h287v-120h-287z" />
    <glyph glyph-name="grave" unicode="`" horiz-adv-x="500" 
d="M198 500l-104 188h154l52 -188h-102z" />
    <glyph glyph-name="a" unicode="a" horiz-adv-x="488" 
d="M304 253c-2 49 -26 71 -71 71c-51 0 -78 -22 -97 -39l-75 80c40 39 85 70 185 70c109 0 192 -59 192 -193v-242h-134l3 59c-32 -49 -69 -68 -126 -68c-78 0 -150 35 -150 134c0 91 69 128 174 128h99zM304 173h-92c-34 0 -49 -15 -49 -39s20 -38 58 -38c55 0 83 24 83 60
v17z" />
    <glyph glyph-name="b" unicode="b" horiz-adv-x="551" 
d="M319 -9c-65 0 -110 26 -134 71l3 -62h-135v722h135v-356c28 42 69 69 134 69c104 0 190 -90 190 -221s-89 -223 -193 -223zM280 109c57 0 93 38 93 105c0 63 -36 102 -93 102c-58 0 -96 -39 -96 -102c0 -67 38 -105 96 -105z" />
    <glyph glyph-name="c" unicode="c" horiz-adv-x="477" 
d="M271 -9c-133 0 -233 92 -233 223c0 129 100 221 233 221c85 0 136 -31 179 -85l-96 -78c-16 26 -49 45 -83 45c-61 0 -95 -43 -95 -103c0 -62 34 -106 95 -106c43 0 66 20 86 40l91 -80c-42 -47 -92 -77 -177 -77z" />
    <glyph glyph-name="d" unicode="d" horiz-adv-x="551" 
d="M232 -9c-104 0 -193 92 -193 223s88 221 191 221c68 0 106 -27 133 -69v356h135v-722h-135l3 62c-24 -45 -69 -71 -134 -71zM271 109c58 0 96 38 96 105c0 63 -38 102 -96 102c-57 0 -93 -39 -93 -102c0 -67 36 -105 93 -105z" />
    <glyph glyph-name="e" unicode="e" horiz-adv-x="538" 
d="M176 172c13 -44 49 -69 110 -69c49 0 86 19 107 34l77 -83c-41 -36 -93 -63 -182 -63c-152 0 -250 92 -250 223c0 129 103 221 235 221c153 0 236 -114 226 -263h-323zM174 250h189c-6 47 -36 75 -89 75s-89 -24 -100 -75z" />
    <glyph glyph-name="f" unicode="f" horiz-adv-x="382" 
d="M102 0v314h-71v112h71v143c0 110 52 166 157 166c60 0 100 -18 131 -54l-73 -90c-10 12 -22 23 -43 23c-22 0 -37 -12 -37 -43v-145h115v-112h-115v-314h-135z" />
    <glyph glyph-name="g" unicode="g" horiz-adv-x="492" 
d="M308 427h164v-96h-63c10 -15 15 -33 15 -52c0 -91 -70 -158 -179 -158c-34 0 -63 5 -87 17c-7 -6 -11 -15 -11 -26c0 -20 13 -33 44 -34l105 -5c116 -6 182 -54 182 -137c0 -90 -66 -158 -235 -158c-153 0 -229 59 -229 140c0 46 30 76 78 94c-35 19 -51 47 -51 86
c0 38 21 67 59 84c-24 26 -38 60 -38 97c0 91 74 156 183 156c23 0 44 -3 63 -8zM243 219c41 0 63 24 63 60c0 34 -22 57 -63 57s-63 -23 -63 -57c0 -36 22 -60 63 -60zM157 -32c-8 -9 -12 -20 -12 -33c0 -34 24 -56 98 -56c79 0 97 21 97 47c0 24 -16 32 -71 35z" />
    <glyph glyph-name="h" unicode="h" horiz-adv-x="530" 
d="M53 0v722h135v-363c26 49 73 76 132 76c93 0 160 -68 160 -189v-246h-135v237c0 48 -23 75 -71 75c-54 0 -86 -30 -86 -84v-228h-135z" />
    <glyph glyph-name="i" unicode="i" horiz-adv-x="251" 
d="M126 497c-46 0 -86 35 -86 85c0 49 40 84 86 84s85 -35 85 -84c0 -50 -39 -85 -85 -85zM58 0v426h135v-426h-135z" />
    <glyph glyph-name="j" unicode="j" horiz-adv-x="250" 
d="M126 497c-46 0 -86 35 -86 85c0 49 40 84 86 84s85 -35 85 -84c0 -50 -39 -85 -85 -85zM40 -222c-50 0 -93 26 -113 51l67 80c11 -10 22 -16 33 -16c21 0 31 12 31 34v499h135v-494c0 -98 -53 -154 -153 -154z" />
    <glyph glyph-name="k" unicode="k" horiz-adv-x="494" 
d="M188 123v-123h-135v722h135v-368c0 -32 -3 -65 -7 -92l140 164h150l-151 -174l167 -252h-157l-106 161z" />
    <glyph glyph-name="l" unicode="l" horiz-adv-x="246" 
d="M56 0v722h134v-722h-134z" />
    <glyph glyph-name="m" unicode="m" horiz-adv-x="790" 
d="M53 0v426h135l-3 -66c30 52 70 75 121 75c55 0 94 -23 120 -73c35 44 82 73 145 73c107 0 169 -71 169 -188v-247h-134v235c0 50 -16 77 -67 77c-52 0 -75 -26 -75 -84v-228h-134v235c0 50 -15 77 -66 77c-52 0 -76 -26 -76 -84v-228h-135z" />
    <glyph glyph-name="n" unicode="n" horiz-adv-x="530" 
d="M53 0v426h135l-3 -70c26 51 76 79 135 79c93 0 160 -68 160 -189v-246h-135v237c0 48 -23 75 -71 75c-54 0 -86 -30 -86 -84v-228h-135z" />
    <glyph glyph-name="o" unicode="o" horiz-adv-x="545" 
d="M273 -9c-132 0 -235 92 -235 221c0 130 103 223 235 223s234 -93 234 -223c0 -129 -102 -221 -234 -221zM273 105c60 0 96 44 96 107c0 64 -36 107 -96 107s-97 -43 -97 -107c0 -63 37 -107 97 -107z" />
    <glyph glyph-name="p" unicode="p" horiz-adv-x="551" 
d="M53 -212v638h135l-3 -66c26 46 71 75 137 75c103 0 190 -90 190 -221s-89 -223 -193 -223c-65 0 -109 27 -131 66v-269h-135zM280 109c57 0 93 38 93 105c0 63 -36 102 -93 102c-58 0 -96 -39 -96 -102c0 -67 38 -105 96 -105z" />
    <glyph glyph-name="q" unicode="q" horiz-adv-x="552" 
d="M364 -212v269c-23 -39 -67 -66 -132 -66c-104 0 -193 92 -193 223s88 221 191 221c68 0 112 -30 137 -75l-3 66h135v-638h-135zM271 109c58 0 96 38 96 105c0 63 -38 102 -96 102c-57 0 -93 -39 -93 -102c0 -67 36 -105 93 -105z" />
    <glyph glyph-name="r" unicode="r" horiz-adv-x="392" 
d="M53 0v426h135l-2 -77c31 70 81 86 125 86c28 0 49 -8 66 -17l-43 -123c-17 8 -33 13 -52 13c-61 0 -94 -28 -94 -119v-189h-135z" />
    <glyph glyph-name="s" unicode="s" horiz-adv-x="421" 
d="M216 -9c-99 0 -157 37 -194 81l79 70c29 -28 66 -45 106 -45c44 0 58 8 58 26c0 23 -27 23 -96 41c-58 15 -123 47 -123 136c0 96 74 135 165 135c70 0 120 -23 155 -59l-72 -77c-20 17 -50 32 -82 32c-31 0 -46 -8 -46 -25c0 -24 27 -27 85 -40c62 -14 140 -43 140 -133
c0 -78 -41 -142 -175 -142z" />
    <glyph glyph-name="t" unicode="t" horiz-adv-x="382" 
d="M242 -11c-86 0 -148 43 -148 171v154h-63v112h63v222h134v-222h109v-112h-109v-158c0 -43 14 -52 35 -52c22 0 38 11 47 18l51 -94c-21 -17 -57 -39 -119 -39z" />
    <glyph glyph-name="u" unicode="u" horiz-adv-x="528" 
d="M209 -9c-93 0 -159 68 -159 189v246h135v-237c0 -48 23 -76 71 -76c54 0 84 31 84 85v228h135v-426h-135l3 70c-26 -51 -75 -79 -134 -79z" />
    <glyph glyph-name="v" unicode="v" horiz-adv-x="490" 
d="M240 -9l-231 435h149l60 -127c20 -43 35 -113 35 -113s14 70 33 113l58 127h137l-228 -435h-13z" />
    <glyph glyph-name="w" unicode="w" horiz-adv-x="689" 
d="M206 -11l-197 437h149l49 -121c15 -36 31 -95 31 -95s16 60 35 95l70 132h10l74 -132c19 -34 37 -95 37 -95s16 60 31 95l50 121h135l-199 -437h-12l-92 171c-17 31 -30 85 -30 85s-15 -55 -32 -85l-98 -171h-11z" />
    <glyph glyph-name="x" unicode="x" horiz-adv-x="511" 
d="M16 0l164 223l-143 203h159l35 -53c15 -23 32 -66 32 -66s16 43 31 66l34 53h144l-141 -192l164 -234h-160l-49 73c-18 27 -39 76 -39 76s-21 -49 -39 -76l-48 -73h-144z" />
    <glyph glyph-name="y" unicode="y" horiz-adv-x="490" 
d="M67 -212l111 252l-169 386h149l61 -164c15 -40 30 -110 30 -110s13 71 29 110l66 164h137l-279 -638h-135z" />
    <glyph glyph-name="z" unicode="z" horiz-adv-x="442" 
d="M23 0v11l185 306h-162v109h368v-11l-189 -306h173v-109h-375z" />
    <glyph glyph-name="braceleft" unicode="{" horiz-adv-x="414" 
d="M299 -128c-81 0 -158 31 -158 144v136c0 47 -18 66 -57 66h-58v114h58c39 0 57 19 57 66v180c0 113 77 144 158 144h85v-114h-73c-28 0 -34 -12 -34 -34v-193c0 -72 -39 -97 -93 -106c54 -9 93 -34 93 -106v-149c0 -22 6 -34 34 -34h73v-114h-85z" />
    <glyph glyph-name="bar" unicode="|" horiz-adv-x="278" 
d="M74 -128v850h130v-850h-130z" />
    <glyph glyph-name="braceright" unicode="}" horiz-adv-x="414" 
d="M30 -128v114h73c28 0 34 12 34 34v149c0 72 39 97 93 106c-54 9 -93 34 -93 106v193c0 22 -6 34 -34 34h-73v114h85c81 0 158 -31 158 -144v-180c0 -47 18 -66 57 -66h58v-114h-58c-39 0 -57 -19 -57 -66v-136c0 -113 -77 -144 -158 -144h-85z" />
    <glyph glyph-name="asciitilde" unicode="~" horiz-adv-x="408" 
d="M124 205l-91 9c5 94 52 140 111 140c27 0 47 -10 63 -20c23 -14 34 -25 48 -25c18 0 26 15 29 45l91 -9c-5 -94 -51 -140 -111 -140c-26 0 -47 10 -63 20c-23 14 -33 25 -48 25c-17 0 -26 -15 -29 -45z" />
    <glyph glyph-name="dagger" unicode="&#x2020;" horiz-adv-x="362" 
d="M120 241v231h-89v111h89v97h122v-97h89v-111h-89v-231h-122z" />
    <glyph glyph-name="degree" unicode="&#xb0;" horiz-adv-x="332" 
d="M166 268c-76 0 -140 59 -140 132c0 75 64 131 140 131c77 0 140 -56 140 -131c0 -73 -63 -132 -140 -132zM166 348c29 0 50 21 50 52s-21 51 -50 51s-50 -20 -50 -51s21 -52 50 -52z" />
    <glyph glyph-name="sterling" unicode="&#xa3;" horiz-adv-x="579" 
d="M174 245h-97v102h51c-11 28 -19 57 -19 86c0 103 76 185 217 185c94 0 165 -44 202 -121l-111 -66c-22 46 -47 67 -91 67c-48 0 -81 -24 -81 -73c0 -25 7 -51 17 -78h155v-102h-117c11 -33 19 -68 19 -105v-9c27 -13 54 -23 83 -23c34 0 59 15 81 39l79 -81
c-36 -49 -92 -75 -154 -75c-58 0 -102 23 -138 49c-31 -29 -73 -49 -120 -49c-80 0 -131 46 -131 110s52 102 114 102c22 0 43 -4 62 -10c-5 17 -13 35 -21 52zM198 100c-18 14 -34 23 -52 23c-19 0 -32 -11 -32 -26s13 -26 33 -26c24 0 42 12 51 29z" />
    <glyph glyph-name="section" unicode="&#xa7;" horiz-adv-x="525" 
d="M118 379c-19 25 -29 54 -29 89c0 89 74 150 172 150c90 0 141 -35 177 -102l-107 -52c-15 27 -32 46 -64 46c-37 0 -51 -18 -51 -37c0 -21 9 -35 37 -45l103 -38c93 -34 141 -82 141 -151c0 -59 -36 -96 -85 -118c16 -22 25 -48 25 -83c0 -88 -68 -141 -184 -141
c-99 0 -174 51 -197 107l105 55c15 -30 40 -53 85 -53c37 0 56 12 56 30c0 16 -8 27 -38 38l-94 36c-97 37 -142 83 -142 157c0 56 41 93 90 112zM344 173c19 9 29 22 29 42c0 27 -15 44 -52 58l-103 39c-14 5 -28 11 -40 18c-17 -8 -26 -22 -26 -42c0 -27 12 -45 49 -59
l97 -36c16 -6 32 -13 46 -20z" />
    <glyph glyph-name="bullet" unicode="&#x2022;" horiz-adv-x="277" 
d="M138 170c-57 0 -107 47 -107 108c0 62 50 108 107 108s108 -46 108 -108c0 -61 -51 -108 -108 -108z" />
    <glyph glyph-name="paragraph" unicode="&#xb6;" horiz-adv-x="708" 
d="M305 0v243h-33c-158 0 -240 98 -240 215c0 115 82 222 240 222h365v-680h-133v563h-66v-563h-133zM276 360h29v203h-29c-52 0 -96 -30 -96 -101c0 -72 44 -102 96 -102z" />
    <glyph glyph-name="germandbls" unicode="&#xdf;" horiz-adv-x="582" 
d="M327 -6c-40 0 -72 6 -87 11l15 111c15 -5 27 -8 48 -8c68 0 103 36 103 106c0 87 -58 120 -145 117v106c48 6 86 30 86 99c0 62 -28 88 -77 88s-82 -34 -82 -103v-521h-135v517c0 142 91 218 217 218c133 0 206 -78 206 -193c0 -67 -30 -112 -78 -139
c88 -26 146 -89 146 -193c0 -127 -77 -216 -217 -216z" />
    <glyph glyph-name="registered" unicode="&#xae;" horiz-adv-x="503" 
d="M250 253c-122 0 -221 91 -221 218c0 128 99 218 221 218c123 0 224 -90 224 -218c0 -127 -101 -218 -224 -218zM250 301c98 0 171 64 171 168c0 109 -73 172 -171 172c-97 0 -168 -63 -168 -172c0 -104 71 -168 168 -168zM315 430l37 -67h-68l-27 54h-25v-54h-66v217h93
c58 0 92 -39 92 -80c0 -27 -11 -54 -36 -70zM232 469h29c9 0 25 5 25 28c0 19 -16 26 -25 26h-29v-54z" />
    <glyph glyph-name="copyright" unicode="&#xa9;" horiz-adv-x="594" 
d="M299 -5c-144 0 -270 113 -270 268s126 268 270 268c142 0 266 -113 266 -268s-124 -268 -266 -268zM299 54c111 0 204 82 204 209s-93 209 -204 209c-114 0 -208 -82 -208 -209s94 -209 208 -209zM304 116c-90 0 -154 61 -154 147c0 87 64 149 150 149
c61 0 100 -28 124 -54l-71 -66c-11 14 -26 22 -44 22c-30 0 -45 -20 -45 -51c0 -28 16 -51 47 -51c23 0 36 11 43 21l72 -63c-24 -28 -61 -54 -122 -54z" />
    <glyph glyph-name="trademark" unicode="&#x2122;" horiz-adv-x="711" 
d="M341 378v306h10l147 -147l147 147h10v-306h-90v123l-62 -71h-9l-63 71v-123h-90zM116 378v228h-81v74h254v-74h-81v-228h-92z" />
    <glyph glyph-name="acute" unicode="&#xb4;" horiz-adv-x="500" 
d="M200 500l52 188h154l-104 -188h-102z" />
    <glyph glyph-name="dieresis" unicode="&#xa8;" horiz-adv-x="500" 
d="M359 506c-39 0 -76 34 -76 76s37 76 76 76c40 0 76 -34 76 -76s-36 -76 -76 -76zM141 506c-39 0 -76 34 -76 76s37 76 76 76c40 0 76 -34 76 -76s-36 -76 -76 -76z" />
    <glyph glyph-name="ff" unicode="&#xfb00;" horiz-adv-x="670" 
d="M102 0v314h-71v112h71v123c0 110 53 166 152 166c48 0 81 -14 111 -40l-56 -97c-7 8 -19 16 -37 16c-21 0 -35 -13 -35 -43v-125h153v143c0 110 52 166 157 166c60 0 100 -18 131 -54l-73 -90c-10 12 -22 23 -43 23c-22 0 -37 -12 -37 -43v-145h115v-112h-115v-314h-135
v314h-153v-314h-135z" />
    <glyph glyph-name="ffi" unicode="&#xfb03;" horiz-adv-x="871" 
d="M746 497c-46 0 -86 35 -86 85c0 49 40 84 86 84s85 -35 85 -84c0 -50 -39 -85 -85 -85zM102 0v314h-71v112h71v123c0 110 53 166 152 166c48 0 81 -14 111 -40l-56 -97c-7 8 -19 16 -37 16c-21 0 -35 -13 -35 -43v-125h153v143c0 110 53 166 157 166c53 0 83 -14 112 -39
l-63 -95c-8 7 -20 13 -36 13c-21 0 -35 -13 -35 -43v-145h288v-426h-135v314h-153v-314h-135v314h-153v-314h-135z" />
    <glyph glyph-name="ffl" unicode="&#xfb04;" horiz-adv-x="871" 
d="M102 0v314h-71v112h71v123c0 110 53 166 152 166c48 0 81 -14 111 -40l-56 -97c-7 8 -19 16 -37 16c-21 0 -35 -13 -35 -43v-125h153v96c0 138 94 213 211 213s212 -68 212 -202v-533h-135v526c0 68 -35 88 -77 88s-76 -23 -76 -88v-100h99v-112h-99v-314h-135v314h-153
v-314h-135z" />
    <glyph glyph-name="lessequal" unicode="&#x2264;" horiz-adv-x="243" 
d="M125 173c-46 0 -85 35 -85 85c0 49 39 84 85 84c45 0 84 -35 84 -84c0 -50 -39 -85 -84 -85z" />
    <glyph glyph-name="greaterequal" unicode="&#x2265;" horiz-adv-x="243" 
d="M125 173c-46 0 -85 35 -85 85c0 49 39 84 85 84c45 0 84 -35 84 -84c0 -50 -39 -85 -84 -85z" />
    <glyph glyph-name="yen" unicode="&#xa5;" horiz-adv-x="572" 
d="M217 0v96h-169v86h168l-32 56h-136v86h87l-111 198h150l78 -154c22 -44 39 -103 39 -103s18 59 40 103l79 154h138l-112 -198h87v-86h-136l-32 -56h168v-86h-169v-96h-137z" />
    <glyph glyph-name="mu" unicode="&#xb5;" horiz-adv-x="565" 
d="M361 62l-2 7c-20 -51 -65 -75 -106 -75c-34 0 -62 12 -81 32c12 -43 16 -62 16 -105v-133h-135v638h135v-234c0 -46 17 -79 69 -79c57 0 86 29 86 92v221h135v-270c0 -43 20 -52 41 -52h18v-104c-17 -3 -43 -5 -65 -5c-51 0 -95 19 -111 67z" />
    <glyph glyph-name="ordfeminine" unicode="&#xaa;" horiz-adv-x="428" 
d="M260 376c-2 39 -22 55 -57 55c-44 0 -65 -18 -81 -33l-73 69c30 30 74 64 169 64c88 0 164 -49 164 -162v-207h-122l3 45c-23 -34 -58 -54 -103 -54c-70 0 -129 36 -129 113c0 75 62 110 146 110h83zM260 304h-72c-26 0 -36 -13 -36 -29c0 -14 12 -28 41 -28
c48 0 67 22 67 47v10z" />
    <glyph glyph-name="ordmasculine" unicode="&#xba;" horiz-adv-x="479" 
d="M240 152c-112 0 -201 80 -201 190c0 108 89 189 201 189c111 0 200 -81 200 -189c0 -110 -89 -190 -200 -190zM240 255c46 0 75 34 75 87c0 51 -29 85 -75 85c-47 0 -74 -34 -74 -85c0 -53 27 -87 74 -87z" />
    <glyph glyph-name="Omega" unicode="&#x2126;" 
d="M752 340c0 -93 -37 -168 -103 -217h94v-123h-292v114c97 36 157 116 157 226c0 128 -85 224 -208 224s-208 -96 -208 -224c0 -110 61 -190 157 -226v-114h-292v123h94c-66 49 -103 124 -103 217c0 201 157 349 352 349s352 -148 352 -349z" />
    <glyph glyph-name="logicalnot" unicode="&#xac;" horiz-adv-x="243" 
d="M125 173c-46 0 -85 35 -85 85c0 49 39 84 85 84c45 0 84 -35 84 -84c0 -50 -39 -85 -84 -85z" />
    <glyph glyph-name="florin" unicode="&#x192;" horiz-adv-x="408" 
d="M48 -212l45 393h-60v108h72l19 161c13 116 72 168 167 168c64 0 100 -24 127 -61l-80 -77c-10 16 -21 24 -39 24c-23 0 -38 -12 -42 -43l-20 -172h106v-108h-118l-45 -393h-132z" />
    <glyph glyph-name="approxequal" unicode="&#x2248;" horiz-adv-x="243" 
d="M125 173c-46 0 -85 35 -85 85c0 49 39 84 85 84c45 0 84 -35 84 -84c0 -50 -39 -85 -84 -85z" />
    <glyph glyph-name="Delta" unicode="&#x2206;" horiz-adv-x="664" 
d="M637 0h-611v12l294 674h12l305 -674v-12zM284 312l-80 -195h243l-82 195c-19 45 -39 114 -41 121c-1 -3 -21 -74 -40 -121z" />
    <glyph glyph-name="guillemotleft" unicode="&#xab;" horiz-adv-x="504" 
d="M342 32l-95 168v8l95 165h130l-98 -169l98 -172h-130zM127 32l-95 168v8l95 165h130l-98 -169l98 -172h-130z" />
    <glyph glyph-name="guillemotright" unicode="&#xbb;" horiz-adv-x="504" 
d="M247 32l98 169l-98 172h130l95 -168v-8l-95 -165h-130zM32 32l98 169l-98 172h130l95 -168v-8l-95 -165h-130z" />
    <glyph glyph-name="ellipsis" unicode="&#x2026;" horiz-adv-x="739" 
d="M615 -6c-46 0 -85 35 -85 85c0 49 39 84 85 84c45 0 84 -35 84 -84c0 -50 -39 -85 -84 -85zM370 -6c-46 0 -85 35 -85 85c0 49 39 84 85 84c45 0 84 -35 84 -84c0 -50 -39 -85 -84 -85zM125 -6c-46 0 -85 35 -85 85c0 49 39 84 85 84c45 0 84 -35 84 -84
c0 -50 -39 -85 -84 -85z" />
    <glyph glyph-name="nbspace" unicode="&#xa0;" horiz-adv-x="182" 
 />
    <glyph glyph-name="endash" unicode="&#x2013;" horiz-adv-x="406" 
d="M30 167v120h346v-120h-346z" />
    <glyph glyph-name="emdash" unicode="&#x2014;" horiz-adv-x="657" 
d="M30 167v120h597v-120h-597z" />
    <glyph glyph-name="quotedblleft" unicode="&#x201c;" horiz-adv-x="459" 
d="M339 413c-44 0 -82 34 -82 79c0 31 12 55 30 86l60 102h65l-38 -114c24 -11 45 -38 45 -73c0 -46 -38 -80 -80 -80zM122 413c-44 0 -82 34 -82 79c0 31 12 55 30 86l60 102h65l-38 -114c24 -11 45 -38 45 -73c0 -46 -38 -80 -80 -80z" />
    <glyph glyph-name="quotedblright" unicode="&#x201d;" horiz-adv-x="459" 
d="M264 420l38 114c-24 11 -45 38 -45 73c0 46 38 80 80 80c44 0 82 -34 82 -79c0 -31 -12 -55 -30 -86l-60 -102h-65zM47 420l38 114c-24 11 -45 38 -45 73c0 46 38 80 80 80c44 0 82 -34 82 -79c0 -31 -12 -55 -30 -86l-60 -102h-65z" />
    <glyph glyph-name="quoteleft" unicode="&#x2018;" horiz-adv-x="242" 
d="M122 413c-44 0 -82 34 -82 79c0 31 12 55 30 86l60 102h65l-38 -114c24 -11 45 -38 45 -73c0 -46 -38 -80 -80 -80z" />
    <glyph glyph-name="quoteright" unicode="&#x2019;" horiz-adv-x="242" 
d="M47 420l38 114c-24 11 -45 38 -45 73c0 46 38 80 80 80c44 0 82 -34 82 -79c0 -31 -12 -55 -30 -86l-60 -102h-65z" />
    <glyph glyph-name="divide" unicode="&#xf7;" horiz-adv-x="243" 
d="M125 173c-46 0 -85 35 -85 85c0 49 39 84 85 84c45 0 84 -35 84 -84c0 -50 -39 -85 -84 -85z" />
    <glyph glyph-name="fraction" unicode="&#x2044;" horiz-adv-x="423" 
d="M-20 0l330 522h133l-330 -522h-133z" />
    <glyph glyph-name="currency" unicode="&#xa4;" horiz-adv-x="598" 
d="M84 283h-58v86h78c41 97 135 162 250 162c92 0 152 -26 204 -90l-93 -78c-29 37 -62 53 -111 53c-44 0 -81 -17 -105 -47h125v-86h-157c-1 -7 -1 -14 -1 -21s0 -14 1 -21h157v-86h-125c25 -31 61 -48 105 -48c61 0 93 26 116 61l99 -74c-52 -73 -114 -103 -215 -103
c-113 0 -209 67 -250 164h-78v86h58c-1 7 -1 14 -1 21s0 14 1 21z" />
    <glyph glyph-name="guilsinglleft" unicode="&#x2039;" horiz-adv-x="289" 
d="M127 32l-95 168v8l95 165h130l-98 -169l98 -172h-130z" />
    <glyph glyph-name="guilsinglright" unicode="&#x203a;" horiz-adv-x="289" 
d="M32 32l98 169l-98 172h130l95 -168v-8l-95 -165h-130z" />
    <glyph glyph-name="fi" unicode="&#xfb01;" horiz-adv-x="583" 
d="M458 497c-46 0 -86 35 -86 85c0 49 40 84 86 84s85 -35 85 -84c0 -50 -39 -85 -85 -85zM102 0v314h-71v112h71v143c0 110 53 166 157 166c53 0 83 -14 112 -39l-63 -95c-8 7 -20 13 -36 13c-21 0 -35 -13 -35 -43v-145h288v-426h-135v314h-153v-314h-135z" />
    <glyph glyph-name="fl" unicode="&#xfb02;" horiz-adv-x="583" 
d="M102 0v314h-71v112h71v96c0 138 94 213 211 213s212 -68 212 -202v-533h-135v526c0 68 -35 88 -77 88s-76 -23 -76 -88v-100h99v-112h-99v-314h-135z" />
    <glyph glyph-name="daggerdbl" unicode="&#x2021;" horiz-adv-x="362" 
d="M120 241v97h-89v99h89v47h-89v99h89v97h122v-97h89v-99h-89v-47h89v-99h-89v-97h-122z" />
    <glyph glyph-name="periodcentered" unicode="&#xb7;" horiz-adv-x="249" 
d="M125 173c-46 0 -85 35 -85 85c0 49 39 84 85 84c45 0 84 -35 84 -84c0 -50 -39 -85 -84 -85z" />
    <glyph glyph-name="quotesinglbase" unicode="&#x201a;" horiz-adv-x="242" 
d="M47 -102l38 114c-24 11 -45 38 -45 73c0 46 38 80 80 80c44 0 82 -34 82 -79c0 -31 -12 -55 -30 -86l-60 -102h-65z" />
    <glyph glyph-name="quotedblbase" unicode="&#x201e;" horiz-adv-x="459" 
d="M264 -102l38 114c-24 11 -45 38 -45 73c0 46 38 80 80 80c44 0 82 -34 82 -79c0 -31 -12 -55 -30 -86l-60 -102h-65zM47 -102l38 114c-24 11 -45 38 -45 73c0 46 38 80 80 80c44 0 82 -34 82 -79c0 -31 -12 -55 -30 -86l-60 -102h-65z" />
    <glyph glyph-name="perthousand" unicode="&#x2030;" horiz-adv-x="1224" 
d="M189 217c-90 0 -164 65 -164 157c0 91 74 157 164 157c89 0 163 -66 163 -157c0 -92 -74 -157 -163 -157zM196 0l330 522h133l-330 -522h-133zM1036 -9c-90 0 -164 65 -164 157c0 91 74 157 164 157c89 0 163 -66 163 -157c0 -92 -74 -157 -163 -157zM667 -9
c-90 0 -164 65 -164 157c0 91 74 157 164 157c89 0 163 -66 163 -157c0 -92 -74 -157 -163 -157zM189 318c26 0 52 21 52 56s-26 56 -52 56s-52 -21 -52 -56s26 -56 52 -56zM1036 92c26 0 52 21 52 56s-26 56 -52 56s-52 -21 -52 -56s26 -56 52 -56zM667 92
c26 0 52 21 52 56s-26 56 -52 56s-52 -21 -52 -56s26 -56 52 -56z" />
    <glyph glyph-name="circumflex" unicode="&#x2c6;" horiz-adv-x="500" 
d="M85 500l159 216h11l159 -216h-108l-56 65l-57 -65h-108z" />
    <glyph glyph-name="tilde" unicode="&#x2dc;" horiz-adv-x="500" 
d="M170 500l-91 9c5 94 52 140 111 140c27 0 47 -10 63 -20c23 -14 34 -25 48 -25c18 0 26 15 29 45l91 -9c-5 -94 -51 -140 -111 -140c-26 0 -47 10 -63 20c-23 14 -33 25 -48 25c-17 0 -26 -15 -29 -45z" />
    <glyph glyph-name="macron" unicode="&#xaf;" horiz-adv-x="500" 
d="M128 526v99h244v-99h-244z" />
    <glyph glyph-name="breve" unicode="&#x2d8;" horiz-adv-x="500" 
d="M250 500c-96 0 -154 60 -162 140l103 15c5 -34 22 -57 59 -57s54 23 59 57l103 -15c-8 -80 -66 -140 -162 -140z" />
    <glyph glyph-name="dotaccent" unicode="&#x2d9;" horiz-adv-x="500" 
d="M250 506c-39 0 -76 34 -76 76s37 76 76 76c40 0 76 -34 76 -76s-36 -76 -76 -76z" />
    <glyph glyph-name="ring" unicode="&#x2da;" horiz-adv-x="500" 
d="M250 474c-73 0 -129 55 -129 119c0 65 56 119 129 119s129 -54 129 -119c0 -64 -56 -119 -129 -119zM250 548c24 0 43 16 43 45s-19 45 -43 45s-43 -16 -43 -45s19 -45 43 -45z" />
    <glyph glyph-name="hungarumlaut" unicode="&#x2dd;" horiz-adv-x="500" 
d="M292 500l51 188h140l-89 -188h-102zM107 500l51 188h140l-89 -188h-102z" />
    <glyph glyph-name="ogonek" unicode="&#x2db;" horiz-adv-x="500" 
d="M243 -240c-57 0 -107 33 -107 101c0 34 17 65 40 94l35 45h79l-41 -69c-20 -34 -26 -45 -26 -68c0 -18 11 -29 28 -29c21 0 32 12 41 26l66 -38c-23 -40 -55 -62 -115 -62z" />
    <glyph glyph-name="caron" unicode="&#x2c7;" horiz-adv-x="500" 
d="M245 481l-159 216h108l56 -65l57 65h108l-159 -216h-11z" />
    <glyph glyph-name="Euro" unicode="&#x20ac;" horiz-adv-x="598" 
d="M84 283h-58v86h78c41 97 135 162 250 162c92 0 152 -26 204 -90l-93 -78c-29 37 -62 53 -111 53c-44 0 -81 -17 -105 -47h125v-86h-157c-1 -7 -1 -14 -1 -21s0 -14 1 -21h157v-86h-125c25 -31 61 -48 105 -48c61 0 93 26 116 61l99 -74c-52 -73 -114 -103 -215 -103
c-113 0 -209 67 -250 164h-78v86h58c-1 7 -1 14 -1 21s0 14 1 21z" />
    <glyph glyph-name="afii00208" unicode="&#x2015;" horiz-adv-x="657" 
d="M30 167v120h597v-120h-597z" />
    <glyph glyph-name="Gamma" unicode="&#x393;" horiz-adv-x="522" 
d="M71 0v680h419v-123h-279v-557h-140z" />
    <glyph glyph-name="uni0394" unicode="&#x394;" horiz-adv-x="664" 
d="M637 0h-611v12l294 674h12l305 -674v-12zM284 312l-80 -195h243l-82 195c-19 45 -39 114 -41 121c-1 -3 -21 -74 -40 -121z" />
    <glyph glyph-name="Theta" unicode="&#x398;" 
d="M400 -9c-196 0 -352 148 -352 349s156 349 352 349s352 -148 352 -349s-156 -349 -352 -349zM400 116c124 0 208 97 208 224s-84 224 -208 224s-208 -97 -208 -224s84 -224 208 -224zM502 341v-120h-204v120h204z" />
    <glyph glyph-name="Lambda" unicode="&#x39b;" horiz-adv-x="653" 
d="M328 686l302 -686h-149l-110 266c-24 58 -52 157 -52 157s-28 -97 -51 -157l-105 -266h-140l293 686h12z" />
    <glyph glyph-name="Xi" unicode="&#x39e;" horiz-adv-x="647" 
d="M62 0v123h192v98h-159v120h159v216h-192v123h523v-123h-192v-216h159v-120h-159v-98h192v-123h-523z" />
    <glyph glyph-name="Pi" unicode="&#x3a0;" horiz-adv-x="691" 
d="M71 680h549v-680h-140v555h-269v-555h-140v680z" />
    <glyph glyph-name="Sigma" unicode="&#x3a3;" horiz-adv-x="582" 
d="M256 557l125 -195v-12l-144 -227h287v-123h-502v12l212 336l-204 320v12h481v-123h-255z" />
    <glyph glyph-name="Alpha" unicode="&#x391;" horiz-adv-x="664" 
d="M21 0l299 686h12l311 -686h-147l-32 77h-276l-32 -77h-135zM235 194h179l-49 118c-20 48 -41 122 -41 122s-20 -74 -40 -122z" />
    <glyph glyph-name="Beta" unicode="&#x392;" horiz-adv-x="610" 
d="M71 0v680h263c127 0 198 -80 198 -176c0 -63 -37 -106 -96 -125c93 -22 138 -84 138 -169c0 -121 -86 -210 -228 -210h-275zM211 429h108c45 0 75 25 75 64s-25 64 -68 64h-115v-128zM211 123h129c57 0 93 38 93 94c0 55 -37 93 -101 93h-121v-187z" />
    <glyph glyph-name="Epsilon" unicode="&#x395;" horiz-adv-x="594" 
d="M71 0v680h450v-123h-310v-216h273v-120h-273v-98h324v-123h-464z" />
    <glyph glyph-name="Zeta" unicode="&#x396;" horiz-adv-x="590" 
d="M27 0v12l312 545h-257v123h473v-12l-311 -545h294v-123h-511z" />
    <glyph glyph-name="Eta" unicode="&#x397;" horiz-adv-x="713" 
d="M71 0v680h140v-348h291v348h140v-680h-140v207h-291v-207h-140z" />
    <glyph glyph-name="Iota" unicode="&#x399;" horiz-adv-x="287" 
d="M74 0v680h140v-680h-140z" />
    <glyph glyph-name="Kappa" unicode="&#x39a;" horiz-adv-x="649" 
d="M202 331c16 36 37 78 58 106l180 243h159l-228 -308l256 -372h-169l-181 267l-66 -79v-188h-140v680h140v-235c0 -33 -5 -80 -9 -114z" />
    <glyph glyph-name="Mu" unicode="&#x39c;" horiz-adv-x="830" 
d="M71 0v687h11l335 -368l330 368h12v-687h-135v255c0 46 5 119 5 119s-41 -60 -73 -96l-135 -151h-13l-135 151c-32 36 -73 96 -73 96s5 -73 5 -119v-255h-134z" />
    <glyph glyph-name="Phi" unicode="&#x3a6;" horiz-adv-x="881" 
d="M372 -40v70c-207 11 -328 153 -328 310s121 297 328 309v71h137v-71c207 -12 328 -152 328 -309s-121 -299 -328 -310v-70h-137zM186 340c0 -95 66 -182 186 -193v386c-120 -12 -186 -100 -186 -193zM695 340c0 93 -67 181 -186 193v-386c119 11 186 98 186 193z" />
    <glyph glyph-name="Psi" unicode="&#x3a8;" horiz-adv-x="790" 
d="M326 0v132c-169 14 -266 103 -266 270v278h140v-269c0 -100 31 -143 126 -160v469h140v-468c92 17 124 61 124 159v269h140v-278c0 -165 -98 -255 -264 -270v-132h-140z" />
    <glyph glyph-name="uni03A9" unicode="&#x3a9;" 
d="M752 340c0 -93 -37 -168 -103 -217h94v-123h-292v114c97 36 157 116 157 226c0 128 -85 224 -208 224s-208 -96 -208 -224c0 -110 61 -190 157 -226v-114h-292v123h94c-66 49 -103 124 -103 217c0 201 157 349 352 349s352 -148 352 -349z" />
    <glyph glyph-name="Etatonos" unicode="&#x389;" horiz-adv-x="713" 
d="M71 0v680h140v-348h291v348h140v-680h-140v207h-291v-207h-140zM-164 500l49 180h154l-101 -180h-102z" />
    <glyph glyph-name="Iotatonos" unicode="&#x38a;" horiz-adv-x="287" 
d="M74 0v680h140v-680h-140zM-164 500l49 180h154l-101 -180h-102z" />
    <glyph glyph-name="Omicrontonos" unicode="&#x38c;" 
d="M400 -9c-196 0 -352 148 -352 349s156 349 352 349s352 -148 352 -349s-156 -349 -352 -349zM400 116c124 0 208 97 208 224s-84 224 -208 224s-208 -97 -208 -224s84 -224 208 -224zM-114 500l49 180h154l-101 -180h-102z" />
    <glyph glyph-name="Upsilontonos" unicode="&#x38e;" horiz-adv-x="682" 
d="M279 0v216l-258 464h155l120 -219c26 -48 55 -129 55 -129s27 80 53 129l115 219h143l-242 -454v-226h-141zM-189 500l49 180h154l-101 -180h-102z" />
    <glyph glyph-name="Omegatonos" unicode="&#x38f;" 
d="M752 340c0 -93 -37 -168 -103 -217h94v-123h-292v114c97 36 157 116 157 226c0 128 -85 224 -208 224s-208 -96 -208 -224c0 -110 61 -190 157 -226v-114h-292v123h94c-66 49 -103 124 -103 217c0 201 157 349 352 349s352 -148 352 -349zM-114 500l49 180h154l-101 -180
h-102z" />
    <glyph glyph-name="Epsilontonos" unicode="&#x388;" horiz-adv-x="594" 
d="M71 0v680h450v-123h-310v-216h273v-120h-273v-98h324v-123h-464zM-164 500l49 180h154l-101 -180h-102z" />
    <glyph glyph-name="Alphatonos" unicode="&#x386;" horiz-adv-x="664" 
d="M21 0l299 686h12l311 -686h-147l-32 77h-276l-32 -77h-135zM235 194h179l-49 118c-20 48 -41 122 -41 122s-20 -74 -40 -122zM-10 500l49 180h154l-101 -180h-102z" />
    <glyph glyph-name="Chi" unicode="&#x3a7;" horiz-adv-x="660" 
d="M27 0l222 374l-185 306h159l69 -117c20 -34 45 -93 45 -93s19 58 39 93l66 117h149l-182 -307l226 -373h-160l-107 181c-21 35 -47 96 -47 96s-21 -60 -42 -96l-105 -181h-147z" />
    <glyph glyph-name="Upsilon" unicode="&#x3a5;" horiz-adv-x="682" 
d="M279 0v216l-258 464h155l120 -219c26 -48 55 -129 55 -129s27 80 53 129l115 219h143l-242 -454v-226h-141z" />
    <glyph glyph-name="Rho" unicode="&#x3a1;" horiz-adv-x="601" 
d="M71 0v680h188c190 0 304 -99 304 -263s-115 -262 -304 -262h-48v-155h-140zM211 278h44c114 0 164 46 164 139c0 94 -52 140 -164 140h-44v-279z" />
    <glyph glyph-name="Omicron" unicode="&#x39f;" 
d="M400 -9c-196 0 -352 148 -352 349s156 349 352 349s352 -148 352 -349s-156 -349 -352 -349zM400 116c124 0 208 97 208 224s-84 224 -208 224s-208 -97 -208 -224s84 -224 208 -224z" />
    <glyph glyph-name="Nu" unicode="&#x39d;" horiz-adv-x="701" 
d="M616 -6l-343 322c-34 32 -81 93 -81 93s10 -75 10 -124v-285h-131v686h14l343 -322c33 -31 80 -93 80 -93s-9 77 -9 124v285h131v-686h-14z" />
    <glyph glyph-name="Tau" unicode="&#x3a4;" horiz-adv-x="592" 
d="M226 0v557h-194v123h528v-123h-194v-557h-140z" />
    <glyph glyph-name="Iotadieresis" unicode="&#x3aa;" horiz-adv-x="287" 
d="M74 0v680h140v-680h-140zM253 754c-39 0 -76 34 -76 76s37 76 76 76c40 0 76 -34 76 -76s-36 -76 -76 -76zM35 754c-39 0 -76 34 -76 76s37 76 76 76c40 0 76 -34 76 -76s-36 -76 -76 -76z" />
    <glyph glyph-name="alpha" unicode="&#x3b1;" horiz-adv-x="586" 
d="M271 109c58 0 96 38 96 105c0 63 -38 102 -96 102c-57 0 -93 -39 -93 -102c0 -67 36 -105 93 -105zM493 -5c-51 0 -99 24 -115 72l-2 6c-26 -53 -79 -82 -144 -82c-104 0 -193 92 -193 223s88 221 191 221c68 0 112 -30 137 -75l-3 66h135v-270c0 -43 20 -52 41 -52h18
v-104c-17 -3 -43 -5 -65 -5z" />
    <glyph glyph-name="beta" unicode="&#x3b2;" horiz-adv-x="556" 
d="M188 48v-260h-135v724c0 142 91 223 217 223c133 0 211 -83 211 -198c0 -59 -35 -126 -110 -149c89 -21 147 -78 147 -178c0 -125 -82 -217 -212 -217c-47 0 -92 20 -118 55zM188 516v-319c0 -50 37 -89 95 -89c63 0 96 39 96 106c0 78 -46 106 -118 106h-27v106h27
c48 0 91 35 91 104c0 62 -33 94 -82 94s-82 -39 -82 -108z" />
    <glyph glyph-name="psi" unicode="&#x3c8;" horiz-adv-x="677" 
d="M406 648v-545c61 17 91 51 91 122v201h135v-206c0 -131 -73 -215 -226 -230v-202h-134v202c-154 15 -227 99 -227 230v206h135v-201c0 -72 29 -105 92 -122v545h134z" />
    <glyph glyph-name="delta" unicode="&#x3b4;" horiz-adv-x="545" 
d="M274 422l-164 288v12h364v-120h-154l147 -255c19 -34 40 -81 40 -135c0 -128 -102 -221 -234 -221c-133 0 -235 93 -235 221c0 123 92 212 211 212c8 0 16 0 25 -2zM273 105c59 0 96 45 96 107c0 63 -37 108 -96 108c-60 0 -97 -45 -97 -108c0 -62 37 -107 97 -107z" />
    <glyph glyph-name="epsilon" unicode="&#x3b5;" horiz-adv-x="478" 
d="M126 229c-41 9 -70 44 -70 79c0 84 90 127 188 127c87 0 156 -28 203 -71l-73 -82c-32 29 -83 43 -116 43c-39 0 -69 -12 -69 -38c0 -16 15 -25 33 -25h89v-78h-89c-11 0 -45 -2 -45 -34c0 -33 32 -45 78 -45c61 0 91 19 128 48l68 -88c-58 -47 -125 -74 -223 -74
c-115 0 -188 52 -188 130c0 53 30 90 86 108z" />
    <glyph glyph-name="phi" unicode="&#x3c6;" horiz-adv-x="693" 
d="M655 211c0 -127 -86 -217 -243 -222v-201h-131v201c-161 5 -243 92 -243 224c0 127 76 195 203 219v-119c-46 -16 -65 -40 -65 -102c0 -65 33 -108 105 -110v331c25 2 57 5 80 5c227 0 294 -108 294 -226zM412 321v-220c81 6 105 49 105 111c0 63 -22 107 -105 109z" />
    <glyph glyph-name="gamma" unicode="&#x3b3;" horiz-adv-x="490" 
d="M277 229l68 197h136l-168 -426v-212h-135v212l-169 426h147l69 -197c16 -45 26 -113 26 -113s11 69 26 113z" />
    <glyph glyph-name="eta" unicode="&#x3b7;" horiz-adv-x="530" 
d="M53 0v426h135l-3 -70c26 51 76 79 135 79c93 0 160 -68 160 -189v-458h-135v449c0 48 -23 75 -71 75c-54 0 -86 -30 -86 -84v-228h-135z" />
    <glyph glyph-name="iota" unicode="&#x3b9;" horiz-adv-x="280" 
d="M193 426v-270c0 -43 20 -52 41 -52h18v-104c-17 -3 -43 -5 -65 -5c-56 0 -129 20 -129 127v304h135z" />
    <glyph glyph-name="xi" unicode="&#x3be;" horiz-adv-x="477" 
d="M302 0h-47c-154 0 -219 82 -219 193c0 80 48 159 142 189c-87 34 -111 101 -111 162c0 108 88 191 212 191c80 0 156 -24 204 -103l-108 -68c-16 29 -47 53 -89 53c-48 0 -80 -34 -80 -94c0 -66 42 -97 101 -97h100v-112h-100c-66 0 -128 -19 -128 -104
c0 -67 40 -96 103 -96h42c80 0 137 -35 137 -130c0 -73 -47 -142 -164 -153l-17 105c25 1 55 4 55 35c0 17 -11 29 -33 29z" />
    <glyph glyph-name="kappa" unicode="&#x3ba;" horiz-adv-x="494" 
d="M188 123v-123h-135v426h135v-72c0 -32 -3 -65 -7 -92l140 164h150l-151 -174l167 -252h-157l-106 161z" />
    <glyph glyph-name="lambda" unicode="&#x3bb;" horiz-adv-x="507" 
d="M241 317c0 0 -11 -80 -23 -120l-60 -197h-149l173 426l-45 126c-12 33 -30 50 -68 50h-29v120h61c77 0 131 -27 158 -105l170 -483c8 -22 21 -30 41 -30h21v-104c-22 -4 -52 -7 -79 -7c-63 0 -90 32 -106 78l-43 125c-14 40 -22 121 -22 121z" />
    <glyph glyph-name="uni03BC" unicode="&#x3bc;" horiz-adv-x="565" 
d="M361 62l-2 7c-20 -51 -65 -75 -106 -75c-34 0 -62 12 -81 32c12 -43 16 -62 16 -105v-133h-135v638h135v-234c0 -46 17 -79 69 -79c57 0 86 29 86 92v221h135v-270c0 -43 20 -52 41 -52h18v-104c-17 -3 -43 -5 -65 -5c-51 0 -95 19 -111 67z" />
    <glyph glyph-name="nu" unicode="&#x3bd;" horiz-adv-x="490" 
d="M240 -9l-231 435h149l60 -127c20 -43 35 -113 35 -113s14 70 33 113l58 127h137l-228 -435h-13z" />
    <glyph glyph-name="omicron" unicode="&#x3bf;" horiz-adv-x="545" 
d="M273 -9c-132 0 -235 92 -235 221c0 130 103 223 235 223s234 -93 234 -223c0 -129 -102 -221 -234 -221zM273 105c60 0 96 44 96 107c0 64 -36 107 -96 107s-97 -43 -97 -107c0 -63 37 -107 97 -107z" />
    <glyph glyph-name="pi" unicode="&#x3c0;" horiz-adv-x="558" 
d="M83 0v314h-52v112h496v-112h-52v-158c0 -43 20 -52 41 -52h11v-104c-19 -3 -49 -4 -71 -4c-56 0 -116 26 -116 133v185h-122v-314h-135z" />
    <glyph glyph-name="rho" unicode="&#x3c1;" horiz-adv-x="540" 
d="M178 40v-252h-135v425c0 128 93 221 226 221c139 0 233 -95 233 -223s-97 -219 -203 -219c-35 0 -86 9 -121 48zM174 211c0 -63 37 -104 95 -104s95 41 95 104s-33 108 -93 108c-59 0 -97 -45 -97 -108z" />
    <glyph glyph-name="sigma" unicode="&#x3c3;" horiz-adv-x="563" 
d="M428 314c59 -26 75 -66 75 -114c0 -123 -101 -209 -230 -209c-133 0 -235 93 -235 221s102 214 235 214h262v-112h-107zM273 105c59 0 96 46 96 108s-37 101 -96 101c-60 0 -97 -42 -97 -104c0 -63 37 -105 97 -105z" />
    <glyph glyph-name="omegatonos" unicode="&#x3ce;" horiz-adv-x="694" 
d="M347 79c-24 -63 -71 -88 -129 -88c-127 0 -180 102 -180 207c0 125 76 232 226 237v-116c-60 -8 -89 -50 -89 -118c0 -46 14 -96 60 -96c29 0 45 22 45 56v115h134v-115c0 -34 16 -56 45 -56c46 0 60 50 60 96c0 68 -29 110 -89 118v116c150 -5 226 -112 226 -237
c0 -105 -53 -207 -180 -207c-58 0 -105 25 -129 88zM300 500l49 180h154l-101 -180h-102z" />
    <glyph glyph-name="tau" unicode="&#x3c4;" horiz-adv-x="445" 
d="M153 314h-125v112h381v-112h-121v-157c0 -43 14 -53 37 -53c15 0 37 7 47 15l49 -95c-21 -17 -73 -34 -126 -34c-82 0 -142 40 -142 157v167z" />
    <glyph glyph-name="theta" unicode="&#x3b8;" horiz-adv-x="576" 
d="M352 184v130h-128v-130c0 -44 14 -79 64 -79s64 35 64 79zM352 426v119c0 44 -14 79 -64 79s-64 -35 -64 -79v-119h128zM545 426v-112h-61v-134c0 -126 -88 -189 -196 -189s-196 63 -196 189v134h-61v112h61v120c0 126 88 189 196 189s196 -63 196 -189v-120h61z" />
    <glyph glyph-name="omega" unicode="&#x3c9;" horiz-adv-x="694" 
d="M347 79c-24 -63 -71 -88 -129 -88c-127 0 -180 102 -180 207c0 125 76 232 226 237v-116c-60 -8 -89 -50 -89 -118c0 -46 14 -96 60 -96c29 0 45 22 45 56v115h134v-115c0 -34 16 -56 45 -56c46 0 60 50 60 96c0 68 -29 110 -89 118v116c150 -5 226 -112 226 -237
c0 -105 -53 -207 -180 -207c-58 0 -105 25 -129 88z" />
    <glyph glyph-name="uni03C2" unicode="&#x3c2;" horiz-adv-x="477" 
d="M255 0l-14 1c-128 8 -203 91 -203 211c0 126 94 223 219 223c85 0 149 -35 194 -115l-114 -58c-15 34 -40 55 -75 55c-58 0 -86 -49 -86 -108c0 -46 25 -89 89 -94l14 -1c75 -5 137 -35 137 -130c0 -73 -47 -142 -164 -153l-17 105c22 1 55 3 55 34c0 17 -11 29 -35 30z
" />
    <glyph glyph-name="chi" unicode="&#x3c7;" horiz-adv-x="527" 
d="M346 129l109 -207c11 -21 31 -30 51 -30h21v-104c-22 -4 -49 -7 -76 -7c-63 0 -95 35 -117 78l-40 77c-14 28 -30 89 -30 90c0 0 -12 -54 -28 -90l-67 -148h-153l187 331l-83 155c-16 30 -21 40 -59 40h-33v112h81c77 0 101 -36 116 -65l32 -63c12 -24 28 -72 28 -72
s13 47 24 72l57 128h152z" />
    <glyph glyph-name="upsilon" unicode="&#x3c5;" horiz-adv-x="507" 
d="M248 -11c-135 0 -203 78 -203 203v234h135v-231c0 -58 20 -89 73 -89c54 0 74 31 74 89v231h135v-234c0 -125 -78 -203 -214 -203z" />
    <glyph glyph-name="zeta" unicode="&#x3b6;" horiz-adv-x="478" 
d="M349 -29c0 17 -11 29 -33 29h-25c-159 0 -249 59 -249 189c0 148 106 292 253 413h-202v120h374v-103c-161 -137 -283 -253 -283 -410c0 -71 45 -95 142 -95h14c80 0 135 -35 135 -130c0 -73 -47 -142 -164 -153l-17 105c25 1 55 4 55 35z" />
    <glyph glyph-name="iotadieresis" unicode="&#x3ca;" horiz-adv-x="280" 
d="M193 426v-270c0 -43 20 -52 41 -52h18v-104c-17 -3 -43 -5 -65 -5c-56 0 -129 20 -129 127v304h135zM245 506c-39 0 -76 34 -76 76s37 76 76 76c40 0 76 -34 76 -76s-36 -76 -76 -76zM27 506c-39 0 -76 34 -76 76s37 76 76 76c40 0 76 -34 76 -76s-36 -76 -76 -76z" />
    <glyph glyph-name="upsilondieresis" unicode="&#x3cb;" horiz-adv-x="507" 
d="M248 -11c-135 0 -203 78 -203 203v234h135v-231c0 -58 20 -89 73 -89c54 0 74 31 74 89v231h135v-234c0 -125 -78 -203 -214 -203zM368 506c-39 0 -76 34 -76 76s37 76 76 76c40 0 76 -34 76 -76s-36 -76 -76 -76zM150 506c-39 0 -76 34 -76 76s37 76 76 76
c40 0 76 -34 76 -76s-36 -76 -76 -76z" />
    <glyph glyph-name="iotadieresistonos" unicode="&#x390;" horiz-adv-x="280" 
d="M193 426v-270c0 -43 20 -52 41 -52h18v-104c-17 -3 -43 -5 -65 -5c-56 0 -129 20 -129 127v304h135zM101 511l39 169h121l-80 -169h-80zM26 506c-31 0 -61 27 -61 61c0 33 30 61 61 61c32 0 61 -28 61 -61c0 -34 -29 -61 -61 -61zM303 506c-31 0 -61 27 -61 61
c0 33 30 61 61 61c32 0 61 -28 61 -61c0 -34 -29 -61 -61 -61z" />
    <glyph glyph-name="upsilondieresistonos" unicode="&#x3b0;" horiz-adv-x="507" 
d="M248 -11c-135 0 -203 78 -203 203v234h135v-231c0 -58 20 -89 73 -89c54 0 74 31 74 89v231h135v-234c0 -125 -78 -203 -214 -203zM199 511l39 169h121l-80 -169h-80zM124 506c-31 0 -61 27 -61 61c0 33 30 61 61 61c32 0 61 -28 61 -61c0 -34 -29 -61 -61 -61zM401 506
c-31 0 -61 27 -61 61c0 33 30 61 61 61c32 0 61 -28 61 -61c0 -34 -29 -61 -61 -61z" />
    <glyph glyph-name="epsilontonos" unicode="&#x3ad;" horiz-adv-x="478" 
d="M126 229c-41 9 -70 44 -70 79c0 84 90 127 188 127c87 0 156 -28 203 -71l-73 -82c-32 29 -83 43 -116 43c-39 0 -69 -12 -69 -38c0 -16 15 -25 33 -25h89v-78h-89c-11 0 -45 -2 -45 -34c0 -33 32 -45 78 -45c61 0 91 19 128 48l68 -88c-58 -47 -125 -74 -223 -74
c-115 0 -188 52 -188 130c0 53 30 90 86 108zM210 500l49 180h154l-101 -180h-102z" />
    <glyph glyph-name="etatonos" unicode="&#x3ae;" horiz-adv-x="530" 
d="M53 0v426h135l-3 -70c26 51 76 79 135 79c93 0 160 -68 160 -189v-458h-135v449c0 48 -23 75 -71 75c-54 0 -86 -30 -86 -84v-228h-135zM230 500l49 180h154l-101 -180h-102z" />
    <glyph glyph-name="iotatonos" unicode="&#x3af;" horiz-adv-x="280" 
d="M193 426v-270c0 -43 20 -52 41 -52h18v-104c-17 -3 -43 -5 -65 -5c-56 0 -129 20 -129 127v304h135zM80 500l49 180h154l-101 -180h-102z" />
    <glyph glyph-name="omicrontonos" unicode="&#x3cc;" horiz-adv-x="545" 
d="M273 -9c-132 0 -235 92 -235 221c0 130 103 223 235 223s234 -93 234 -223c0 -129 -102 -221 -234 -221zM273 105c60 0 96 44 96 107c0 64 -36 107 -96 107s-97 -43 -97 -107c0 -63 37 -107 97 -107zM230 500l49 180h154l-101 -180h-102z" />
    <glyph glyph-name="Upsilondieresis" unicode="&#x3ab;" horiz-adv-x="682" 
d="M279 0v216l-258 464h155l120 -219c26 -48 55 -129 55 -129s27 80 53 129l115 219h143l-242 -454v-226h-141zM450 755c-39 0 -76 34 -76 76s37 76 76 76c40 0 76 -34 76 -76s-36 -76 -76 -76zM232 755c-39 0 -76 34 -76 76s37 76 76 76c40 0 76 -34 76 -76
s-36 -76 -76 -76z" />
    <glyph glyph-name="alphatonos" unicode="&#x3ac;" horiz-adv-x="586" 
d="M271 109c58 0 96 38 96 105c0 63 -38 102 -96 102c-57 0 -93 -39 -93 -102c0 -67 36 -105 93 -105zM493 -5c-51 0 -99 24 -115 72l-2 6c-26 -53 -79 -82 -144 -82c-104 0 -193 92 -193 223s88 221 191 221c68 0 112 -30 137 -75l-3 66h135v-270c0 -43 20 -52 41 -52h18
v-104c-17 -3 -43 -5 -65 -5zM230 500l49 180h154l-101 -180h-102z" />
    <glyph glyph-name="upsilontonos" unicode="&#x3cd;" horiz-adv-x="507" 
d="M248 -11c-135 0 -203 78 -203 203v234h135v-231c0 -58 20 -89 73 -89c54 0 74 31 74 89v231h135v-234c0 -125 -78 -203 -214 -203zM207 500l49 180h154l-101 -180h-102z" />
    <glyph glyph-name="tonos" unicode="&#x384;" horiz-adv-x="500" 
d="M200 500l49 180h154l-101 -180h-102z" />
    <glyph glyph-name="dieresistonos" unicode="&#x385;" horiz-adv-x="500" 
d="M231 511l39 169h121l-80 -169h-80zM156 506c-31 0 -61 27 -61 61c0 33 30 61 61 61c32 0 61 -28 61 -61c0 -34 -29 -61 -61 -61zM433 506c-31 0 -61 27 -61 61c0 33 30 61 61 61c32 0 61 -28 61 -61c0 -34 -29 -61 -61 -61z" />
    <glyph glyph-name="dotlessi" unicode="&#x131;" horiz-adv-x="251" 
d="M58 0v426h135v-426h-135z" />
    <glyph glyph-name="oe" unicode="&#x153;" horiz-adv-x="867" 
d="M505 172c13 -44 49 -69 110 -69c49 0 86 19 107 34l77 -83c-41 -36 -93 -63 -182 -63c-82 0 -141 28 -179 74c-34 -46 -90 -74 -165 -74c-132 0 -235 92 -235 221c0 130 103 223 235 223c74 0 129 -27 164 -73c35 46 91 73 165 73c153 0 235 -115 226 -263h-323zM503 250
h189c-6 47 -36 75 -89 75s-89 -24 -100 -75zM273 105c60 0 96 44 96 107c0 64 -36 107 -96 107s-97 -43 -97 -107c0 -63 37 -107 97 -107z" />
    <glyph glyph-name="Adieresis" unicode="&#xc4;" horiz-adv-x="664" 
d="M441 754c-39 0 -76 34 -76 76s37 76 76 76c40 0 76 -34 76 -76s-36 -76 -76 -76zM223 754c-39 0 -76 34 -76 76s37 76 76 76c40 0 76 -34 76 -76s-36 -76 -76 -76zM21 0l299 686h12l311 -686h-147l-32 77h-276l-32 -77h-135zM235 194h179l-49 118c-20 48 -41 122 -41 122
s-20 -74 -40 -122z" />
    <glyph glyph-name="Eacute" unicode="&#xc9;" horiz-adv-x="594" 
d="M246 748l52 188h154l-104 -188h-102zM71 0v680h450v-123h-310v-216h273v-120h-273v-98h324v-123h-464z" />
    <glyph glyph-name="Odieresis" unicode="&#xd6;" 
d="M509 754c-39 0 -76 34 -76 76s37 76 76 76c40 0 76 -34 76 -76s-36 -76 -76 -76zM291 754c-39 0 -76 34 -76 76s37 76 76 76c40 0 76 -34 76 -76s-36 -76 -76 -76zM400 -9c-196 0 -352 148 -352 349s156 349 352 349s352 -148 352 -349s-156 -349 -352 -349zM400 116
c124 0 208 97 208 224s-84 224 -208 224s-208 -97 -208 -224s84 -224 208 -224z" />
    <glyph glyph-name="Udieresis" unicode="&#xdc;" horiz-adv-x="686" 
d="M452 754c-39 0 -76 34 -76 76s37 76 76 76c40 0 76 -34 76 -76s-36 -76 -76 -76zM234 754c-39 0 -76 34 -76 76s37 76 76 76c40 0 76 -34 76 -76s-36 -76 -76 -76zM344 -9c-157 0 -276 83 -276 255v434h140v-426c0 -99 43 -137 136 -137c92 0 134 38 134 137v426h140
v-434c0 -172 -119 -255 -274 -255z" />
    <glyph glyph-name="agrave" unicode="&#xe0;" horiz-adv-x="488" 
d="M205 500l-104 188h154l52 -188h-102zM304 253c-2 49 -26 71 -71 71c-51 0 -78 -22 -97 -39l-75 80c40 39 85 70 185 70c109 0 192 -59 192 -193v-242h-134l3 59c-32 -49 -69 -68 -126 -68c-78 0 -150 35 -150 134c0 91 69 128 174 128h99zM304 173h-92
c-34 0 -49 -15 -49 -39s20 -38 58 -38c55 0 83 24 83 60v17z" />
    <glyph glyph-name="acircumflex" unicode="&#xe2;" horiz-adv-x="488" 
d="M76 500l159 216h11l159 -216h-108l-56 65l-57 -65h-108zM304 253c-2 49 -26 71 -71 71c-51 0 -78 -22 -97 -39l-75 80c40 39 85 70 185 70c109 0 192 -59 192 -193v-242h-134l3 59c-32 -49 -69 -68 -126 -68c-78 0 -150 35 -150 134c0 91 69 128 174 128h99zM304 173h-92
c-34 0 -49 -15 -49 -39s20 -38 58 -38c55 0 83 24 83 60v17z" />
    <glyph glyph-name="adieresis" unicode="&#xe4;" horiz-adv-x="488" 
d="M352 506c-39 0 -76 34 -76 76s37 76 76 76c40 0 76 -34 76 -76s-36 -76 -76 -76zM134 506c-39 0 -76 34 -76 76s37 76 76 76c40 0 76 -34 76 -76s-36 -76 -76 -76zM304 253c-2 49 -26 71 -71 71c-51 0 -78 -22 -97 -39l-75 80c40 39 85 70 185 70c109 0 192 -59 192 -193
v-242h-134l3 59c-32 -49 -69 -68 -126 -68c-78 0 -150 35 -150 134c0 91 69 128 174 128h99zM304 173h-92c-34 0 -49 -15 -49 -39s20 -38 58 -38c55 0 83 24 83 60v17z" />
    <glyph glyph-name="ccedilla" unicode="&#xe7;" horiz-adv-x="479" 
d="M209 -2c-101 24 -171 106 -171 216c0 129 100 221 233 221c85 0 136 -31 179 -85l-96 -78c-16 26 -49 45 -83 45c-61 0 -95 -43 -95 -103c0 -62 34 -106 95 -106c43 0 66 20 86 40l91 -80c-41 -46 -89 -75 -170 -77v-30c46 -9 89 -42 89 -104c0 -60 -54 -97 -108 -97
c-62 0 -98 26 -118 60l64 39c8 -15 20 -28 43 -28c19 0 36 11 36 34s-17 34 -41 34h-34v99z" />
    <glyph glyph-name="egrave" unicode="&#xe8;" horiz-adv-x="538" 
d="M227 500l-104 188h154l52 -188h-102zM176 172c13 -44 49 -69 110 -69c49 0 86 19 107 34l77 -83c-41 -36 -93 -63 -182 -63c-152 0 -250 92 -250 223c0 129 103 221 235 221c153 0 236 -114 226 -263h-323zM174 250h189c-6 47 -36 75 -89 75s-89 -24 -100 -75z" />
    <glyph glyph-name="eacute" unicode="&#xe9;" horiz-adv-x="538" 
d="M219 500l52 188h154l-104 -188h-102zM176 172c13 -44 49 -69 110 -69c49 0 86 19 107 34l77 -83c-41 -36 -93 -63 -182 -63c-152 0 -250 92 -250 223c0 129 103 221 235 221c153 0 236 -114 226 -263h-323zM174 250h189c-6 47 -36 75 -89 75s-89 -24 -100 -75z" />
    <glyph glyph-name="ecircumflex" unicode="&#xea;" horiz-adv-x="538" 
d="M104 500l159 216h11l159 -216h-108l-56 65l-57 -65h-108zM176 172c13 -44 49 -69 110 -69c49 0 86 19 107 34l77 -83c-41 -36 -93 -63 -182 -63c-152 0 -250 92 -250 223c0 129 103 221 235 221c153 0 236 -114 226 -263h-323zM174 250h189c-6 47 -36 75 -89 75
s-89 -24 -100 -75z" />
    <glyph glyph-name="edieresis" unicode="&#xeb;" horiz-adv-x="538" 
d="M378 506c-39 0 -76 34 -76 76s37 76 76 76c40 0 76 -34 76 -76s-36 -76 -76 -76zM160 506c-39 0 -76 34 -76 76s37 76 76 76c40 0 76 -34 76 -76s-36 -76 -76 -76zM176 172c13 -44 49 -69 110 -69c49 0 86 19 107 34l77 -83c-41 -36 -93 -63 -182 -63
c-152 0 -250 92 -250 223c0 129 103 221 235 221c153 0 236 -114 226 -263h-323zM174 250h189c-6 47 -36 75 -89 75s-89 -24 -100 -75z" />
    <glyph glyph-name="icircumflex" unicode="&#xee;" horiz-adv-x="251" 
d="M-40 500l159 216h11l159 -216h-108l-56 65l-57 -65h-108zM58 0v426h135v-426h-135z" />
    <glyph glyph-name="idieresis" unicode="&#xef;" horiz-adv-x="251" 
d="M234 506c-39 0 -76 34 -76 76s37 76 76 76c40 0 76 -34 76 -76s-36 -76 -76 -76zM16 506c-39 0 -76 34 -76 76s37 76 76 76c40 0 76 -34 76 -76s-36 -76 -76 -76zM58 0v426h135v-426h-135z" />
    <glyph glyph-name="ocircumflex" unicode="&#xf4;" horiz-adv-x="545" 
d="M107 500l159 216h11l159 -216h-108l-56 65l-57 -65h-108zM273 -9c-132 0 -235 92 -235 221c0 130 103 223 235 223s234 -93 234 -223c0 -129 -102 -221 -234 -221zM273 105c60 0 96 44 96 107c0 64 -36 107 -96 107s-97 -43 -97 -107c0 -63 37 -107 97 -107z" />
    <glyph glyph-name="odieresis" unicode="&#xf6;" horiz-adv-x="545" 
d="M381 506c-39 0 -76 34 -76 76s37 76 76 76c40 0 76 -34 76 -76s-36 -76 -76 -76zM163 506c-39 0 -76 34 -76 76s37 76 76 76c40 0 76 -34 76 -76s-36 -76 -76 -76zM273 -9c-132 0 -235 92 -235 221c0 130 103 223 235 223s234 -93 234 -223c0 -129 -102 -221 -234 -221z
M273 105c60 0 96 44 96 107c0 64 -36 107 -96 107s-97 -43 -97 -107c0 -63 37 -107 97 -107z" />
    <glyph glyph-name="ugrave" unicode="&#xf9;" horiz-adv-x="528" 
d="M212 500l-104 188h154l52 -188h-102zM209 -9c-93 0 -159 68 -159 189v246h135v-237c0 -48 23 -76 71 -76c54 0 84 31 84 85v228h135v-426h-135l3 70c-26 -51 -75 -79 -134 -79z" />
    <glyph glyph-name="ucircumflex" unicode="&#xfb;" horiz-adv-x="528" 
d="M99 500l159 216h11l159 -216h-108l-56 65l-57 -65h-108zM209 -9c-93 0 -159 68 -159 189v246h135v-237c0 -48 23 -76 71 -76c54 0 84 31 84 85v228h135v-426h-135l3 70c-26 -51 -75 -79 -134 -79z" />
    <glyph glyph-name="udieresis" unicode="&#xfc;" horiz-adv-x="528" 
d="M373 506c-39 0 -76 34 -76 76s37 76 76 76c40 0 76 -34 76 -76s-36 -76 -76 -76zM155 506c-39 0 -76 34 -76 76s37 76 76 76c40 0 76 -34 76 -76s-36 -76 -76 -76zM209 -9c-93 0 -159 68 -159 189v246h135v-237c0 -48 23 -76 71 -76c54 0 84 31 84 85v228h135v-426h-135
l3 70c-26 -51 -75 -79 -134 -79z" />
    <glyph glyph-name="uni037E" unicode="&#x37e;" horiz-adv-x="259" 
d="M130 224c-46 0 -85 35 -85 85c0 49 39 84 85 84c45 0 84 -35 84 -84c0 -50 -39 -85 -84 -85zM57 -115l38 120c-30 14 -50 40 -50 76c0 47 39 82 85 82c45 0 84 -35 84 -84c0 -33 -15 -58 -30 -85l-59 -109h-68z" />
    <glyph glyph-name="anoteleia" unicode="&#x387;" horiz-adv-x="249" 
d="M125 173c-46 0 -85 35 -85 85c0 49 39 84 85 84c45 0 84 -35 84 -84c0 -50 -39 -85 -84 -85z" />
    <glyph glyph-name="uni03D7" unicode="&#x3d7;" horiz-adv-x="899" 
d="M429 381v-113l89 113h147l-127 -147l45 -77c28 -49 52 -65 84 -65s79 33 79 147c0 166 -94 267 -276 267c-183 0 -308 -122 -308 -308c0 -185 110 -303 313 -303c55 0 111 11 159 28l42 -94c-63 -25 -119 -36 -199 -36c-250 0 -438 151 -438 404c0 247 203 411 431 411
c238 0 390 -152 390 -367c0 -150 -75 -254 -207 -254c-92 0 -130 50 -163 106l-29 50l-32 -37v-106h-130v381h130z" />
    <glyph glyph-name="uni03DA" unicode="&#x3da;" horiz-adv-x="763" 
d="M192 382c0 -106 47 -173 143 -205l49 -17c84 -29 122 -53 122 -122c0 -28 -8 -57 -23 -102l-35 -102h-118l37 108c9 25 15 50 15 63c0 26 -27 36 -50 44l-68 23c-104 35 -216 119 -216 310c0 132 68 298 290 298h231c34 0 50 4 83 47l78 -59c-34 -75 -79 -112 -174 -112
h-220c-104 0 -144 -82 -144 -174z" />
    <glyph glyph-name="uni03DC" unicode="&#x3dc;" horiz-adv-x="556" 
d="M71 0v680h438v-123h-298v-225h271v-125h-271v-207h-140z" />
    <glyph glyph-name="uni03D8" unicode="&#x3d8;" 
d="M329 -186v184c-162 31 -281 166 -281 342c0 201 156 349 352 349s352 -148 352 -349c0 -177 -121 -313 -283 -342v-184h-140zM400 116c124 0 208 97 208 224s-84 224 -208 224s-208 -97 -208 -224s84 -224 208 -224z" />
    <glyph glyph-name="uni03DE" unicode="&#x3de;" horiz-adv-x="493" 
d="M83 85l-43 63l155 242c-38 9 -51 38 -51 68c0 39 35 75 79 75c56 0 79 -37 79 -75c0 -32 -13 -53 -39 -91l-106 -160l245 77l41 -66l-269 -455l-103 61l240 347z" />
    <glyph glyph-name="uni03E0" unicode="&#x3e0;" horiz-adv-x="781" 
d="M595 -199v52c0 100 -11 183 -29 251l-265 -227l-62 80l296 238c-18 38 -38 71 -61 98l-288 -247l-62 80l282 227c-85 58 -187 71 -277 71h-69v94h65c476 0 586 -286 586 -661v-56h-116z" />
    <glyph glyph-name="uni03DB" unicode="&#x3db;" horiz-adv-x="603" 
d="M176 211c0 -63 29 -100 82 -117l43 -14c69 -23 101 -38 101 -96c0 -26 -8 -49 -27 -103l-29 -82h-105l39 117c9 26 11 35 11 45c0 14 -14 19 -23 22l-62 19c-77 24 -168 84 -168 204c0 122 94 220 214 220h180c24 0 53 10 75 40l69 -52c-40 -91 -89 -100 -144 -100h-168
c-66 0 -88 -47 -88 -103z" />
    <glyph glyph-name="uni03DD" unicode="&#x3dd;" horiz-adv-x="376" 
d="M53 -209v635h302v-112h-167v-155h138v-112h-138v-256h-135z" />
    <glyph glyph-name="uni03D9" unicode="&#x3d9;" horiz-adv-x="545" 
d="M200 -136v137c-95 27 -162 107 -162 211c0 130 103 223 235 223s234 -93 234 -223c0 -108 -72 -190 -172 -214v-134h-135zM273 105c60 0 96 44 96 107c0 64 -36 107 -96 107s-97 -43 -97 -107c0 -63 37 -107 97 -107z" />
    <glyph glyph-name="uni03DF" unicode="&#x3df;" horiz-adv-x="465" 
d="M242 443c56 0 73 -42 73 -71c0 -35 -19 -55 -56 -87l-85 -74h221l30 -66l-270 -265l-97 54l213 185h-234l-7 51l171 148c-25 15 -31 42 -31 56c0 32 22 69 72 69z" />
    <glyph glyph-name="uni03E1" unicode="&#x3e1;" horiz-adv-x="672" 
d="M499 -178v40c0 80 -8 146 -22 201l-214 -186l-61 75l244 202c-14 29 -30 54 -48 74l-239 -207l-61 75l230 191c-65 39 -141 48 -209 48h-69v94h66c391 0 496 -244 496 -558v-49h-113z" />
    <glyph glyph-name="uni1FEF" unicode="&#x1fef;" horiz-adv-x="500" 
d="M302 680l49 -180h-102l-101 180h154z" />
    <glyph glyph-name="uni1FFD" unicode="&#x1ffd;" horiz-adv-x="500" 
d="M148 500l49 180h154l-101 -180h-102z" />
    <glyph glyph-name="uni1FBF" unicode="&#x1fbf;" horiz-adv-x="500" 
d="M225 572c-28 0 -49 22 -49 52s21 58 63 58c52 0 85 -32 85 -84c0 -60 -47 -95 -113 -111l-15 38c39 10 48 25 48 43c0 3 -1 6 -2 6c-3 -2 -6 -2 -17 -2z" />
    <glyph glyph-name="uni1FFE" unicode="&#x1ffe;" horiz-adv-x="500" 
d="M275 572c-11 0 -14 0 -17 2c-1 0 -2 -3 -2 -6c0 -18 9 -33 48 -43l-15 -38c-66 16 -113 51 -113 111c0 52 33 84 85 84c42 0 63 -28 63 -58s-21 -52 -49 -52z" />
    <glyph glyph-name="uni1FCD" unicode="&#x1fcd;" horiz-adv-x="500" 
d="M116 576c-28 0 -49 22 -49 52s21 58 63 58c52 0 85 -32 85 -84c0 -60 -47 -95 -113 -111l-15 38c39 10 48 25 48 43c0 3 -1 6 -2 6c-3 -2 -6 -2 -17 -2zM432 500l-49 180h-154l101 -180h102z" />
    <glyph glyph-name="uni1FDD" unicode="&#x1fdd;" horiz-adv-x="500" 
d="M166 576c-11 0 -14 0 -17 2c-1 0 -2 -3 -2 -6c0 -18 9 -33 48 -43l-15 -38c-66 16 -113 51 -113 111c0 52 33 84 85 84c42 0 63 -28 63 -58s-21 -52 -49 -52zM432 500l-49 180h-154l101 -180h102z" />
    <glyph glyph-name="uni1FCE" unicode="&#x1fce;" horiz-adv-x="500" 
d="M116 576c-28 0 -49 22 -49 52s21 58 63 58c52 0 85 -32 85 -84c0 -60 -47 -95 -113 -111l-15 38c39 10 48 25 48 43c0 3 -1 6 -2 6c-3 -2 -6 -2 -17 -2zM278 680l-49 -180h102l101 180h-154z" />
    <glyph glyph-name="uni1FDE" unicode="&#x1fde;" horiz-adv-x="500" 
d="M163 576c-11 0 -14 0 -17 2c-1 0 -2 -3 -2 -6c0 -18 9 -33 48 -43l-15 -38c-66 16 -113 51 -113 111c0 52 33 84 85 84c42 0 63 -28 63 -58s-21 -52 -49 -52zM281 680l-49 -180h102l101 180h-154z" />
    <glyph glyph-name="uni1FCF" unicode="&#x1fcf;" horiz-adv-x="500" 
d="M247 564c-28 0 -49 22 -49 52s21 58 63 58c52 0 85 -32 85 -84c0 -60 -47 -95 -113 -111l-15 38c39 10 48 25 48 43c0 3 -1 6 -2 6c-3 -2 -6 -2 -17 -2zM298 804c13 0 26 4 43 28l54 -40c-21 -56 -61 -75 -91 -75c-24 0 -41 4 -58 10c-11 5 -29 12 -39 12
c-7 0 -24 -2 -45 -30l-57 48c28 49 60 70 100 70c20 0 34 -6 50 -13c18 -8 38 -10 43 -10z" />
    <glyph glyph-name="uni1FDF" unicode="&#x1fdf;" horiz-adv-x="500" 
d="M288 564c-11 0 -14 0 -17 2c-1 0 -2 -3 -2 -6c0 -18 9 -33 48 -43l-15 -38c-66 16 -113 51 -113 111c0 52 33 84 85 84c42 0 63 -28 63 -58s-21 -52 -49 -52zM298 800c13 0 26 4 43 28l54 -40c-21 -56 -61 -75 -91 -75c-24 0 -41 4 -58 10c-11 5 -29 12 -39 12
c-7 0 -24 -2 -45 -30l-57 48c28 49 60 70 100 70c20 0 34 -6 50 -13c18 -8 38 -10 43 -10z" />
    <glyph glyph-name="uni1FC0" unicode="&#x1fc0;" horiz-adv-x="500" 
d="M298 540c13 0 26 4 43 28l54 -40c-21 -56 -61 -75 -91 -75c-24 0 -41 4 -58 10c-11 5 -29 12 -39 12c-7 0 -24 -2 -45 -30l-57 48c28 49 60 70 100 70c20 0 34 -6 50 -13c18 -8 38 -10 43 -10z" />
    <glyph glyph-name="uni1FC1" unicode="&#x1fc1;" horiz-adv-x="500" 
d="M290 752c13 0 26 4 43 28l54 -40c-21 -56 -61 -75 -91 -75c-24 0 -41 4 -58 10c-11 5 -29 12 -39 12c-7 0 -24 -2 -45 -30l-57 48c28 49 60 70 100 70c20 0 34 -6 50 -13c18 -8 38 -10 43 -10zM342 506c-31 0 -61 27 -61 60c0 34 30 61 61 61c32 0 61 -27 61 -61
c0 -33 -29 -60 -61 -60zM168 506c-31 0 -61 27 -61 60c0 34 30 61 61 61c32 0 61 -27 61 -61c0 -33 -29 -60 -61 -60z" />
    <glyph glyph-name="uni1FED" unicode="&#x1fed;" horiz-adv-x="500" 
d="M274 680l39 -169h-80l-80 169h121zM388 506c-32 0 -61 27 -61 61c0 33 29 61 61 61c31 0 61 -28 61 -61c0 -34 -30 -61 -61 -61zM111 506c-32 0 -61 27 -61 61c0 33 29 61 61 61c31 0 61 -28 61 -61c0 -34 -30 -61 -61 -61z" />
    <glyph glyph-name="uni1FEE" unicode="&#x1fee;" horiz-adv-x="500" 
d="M186 511l39 169h121l-80 -169h-80zM111 506c-31 0 -61 27 -61 61c0 33 30 61 61 61c32 0 61 -28 61 -61c0 -34 -29 -61 -61 -61zM388 506c-31 0 -61 27 -61 61c0 33 30 61 61 61c32 0 61 -28 61 -61c0 -34 -29 -61 -61 -61z" />
    <glyph glyph-name="uni1FBD" unicode="&#x1fbd;" horiz-adv-x="500" 
d="M221 598c-16 0 -37 11 -37 38c0 33 24 47 51 47c48 0 80 -32 80 -84c0 -59 -43 -93 -102 -106l-14 41c36 13 53 28 53 51c0 6 -2 15 -8 19c-6 -3 -9 -6 -23 -6z" />
    <glyph glyph-name="uni1FBE" unicode="&#x1fbe;" horiz-adv-x="500" 
d="M166 -52h113v-24c0 -11 8 -28 36 -28h19v-104c-11 -2 -42 -5 -57 -5c-88 0 -111 50 -111 123v38z" />
    <glyph glyph-name="uni0374" unicode="&#x374;" horiz-adv-x="500" 
d="M136 433l61 247h166l-124 -247h-103z" />
    <glyph glyph-name="uni0375" unicode="&#x375;" horiz-adv-x="500" 
d="M363 95l-61 -247h-166l124 247h103z" />
    <glyph glyph-name="uni1FB3" unicode="&#x1fb3;" horiz-adv-x="586" 
d="M271 109c58 0 96 38 96 105c0 63 -38 102 -96 102c-57 0 -93 -39 -93 -102c0 -67 36 -105 93 -105zM493 -5c-51 0 -99 24 -115 72l-2 6c-26 -53 -79 -82 -144 -82c-104 0 -193 92 -193 223s88 221 191 221c68 0 112 -30 137 -75l-3 66h135v-270c0 -43 20 -52 41 -52h18
v-104c-17 -3 -43 -5 -65 -5zM237 -52h113v-24c0 -11 8 -28 36 -28h19v-104c-11 -2 -42 -5 -57 -5c-88 0 -111 50 -111 123v38z" />
    <glyph glyph-name="uni1FC3" unicode="&#x1fc3;" horiz-adv-x="530" 
d="M53 0v426h135l-3 -70c26 51 76 79 135 79c93 0 160 -68 160 -189v-458h-135v449c0 48 -23 75 -71 75c-54 0 -86 -30 -86 -84v-228h-135zM53 -52h113v-24c0 -11 8 -28 36 -28h19v-104c-11 -2 -42 -5 -57 -5c-88 0 -111 50 -111 123v38z" />
    <glyph glyph-name="uni1FF3" unicode="&#x1ff3;" horiz-adv-x="694" 
d="M347 79c-24 -63 -71 -88 -129 -88c-127 0 -180 102 -180 207c0 125 76 232 226 237v-116c-60 -8 -89 -50 -89 -118c0 -46 14 -96 60 -96c29 0 45 22 45 56v115h134v-115c0 -34 16 -56 45 -56c46 0 60 50 60 96c0 68 -29 110 -89 118v116c150 -5 226 -112 226 -237
c0 -105 -53 -207 -180 -207c-58 0 -105 25 -129 88zM295 -52h113v-24c0 -11 8 -28 36 -28h19v-104c-11 -2 -42 -5 -57 -5c-88 0 -111 50 -111 123v38z" />
    <glyph glyph-name="uni1FBC" unicode="&#x1fbc;" horiz-adv-x="664" 
d="M21 0l299 686h12l311 -686h-147l-32 77h-276l-32 -77h-135zM235 194h179l-49 118c-20 48 -41 122 -41 122s-20 -74 -40 -122zM265 -52h113v-24c0 -11 8 -28 36 -28h19v-104c-11 -2 -42 -5 -57 -5c-88 0 -111 50 -111 123v38z" />
    <glyph glyph-name="uni1FFC" unicode="&#x1ffc;" 
d="M752 340c0 -93 -37 -168 -103 -217h94v-123h-292v114c97 36 157 116 157 226c0 128 -85 224 -208 224s-208 -96 -208 -224c0 -110 61 -190 157 -226v-114h-292v123h94c-66 49 -103 124 -103 217c0 201 157 349 352 349s352 -148 352 -349zM345 -52h113v-24
c0 -11 8 -28 36 -28h19v-104c-11 -2 -42 -5 -57 -5c-88 0 -111 50 -111 123v38z" />
    <glyph glyph-name="uni1FCC" unicode="&#x1fcc;" horiz-adv-x="713" 
d="M71 0v680h140v-348h291v348h140v-680h-140v207h-291v-207h-140zM288 -52h113v-24c0 -11 8 -28 36 -28h19v-104c-11 -2 -42 -5 -57 -5c-88 0 -111 50 -111 123v38z" />
    <glyph glyph-name="uni1F70" unicode="&#x1f70;" horiz-adv-x="586" 
d="M271 109c58 0 96 38 96 105c0 63 -38 102 -96 102c-57 0 -93 -39 -93 -102c0 -67 36 -105 93 -105zM493 -5c-51 0 -99 24 -115 72l-2 6c-26 -53 -79 -82 -144 -82c-104 0 -193 92 -193 223s88 221 191 221c68 0 112 -30 137 -75l-3 66h135v-270c0 -43 20 -52 41 -52h18
v-104c-17 -3 -43 -5 -65 -5zM281 683l49 -180h-102l-101 180h154z" />
    <glyph glyph-name="uni1F71" unicode="&#x1f71;" horiz-adv-x="586" 
d="M271 109c58 0 96 38 96 105c0 63 -38 102 -96 102c-57 0 -93 -39 -93 -102c0 -67 36 -105 93 -105zM493 -5c-51 0 -99 24 -115 72l-2 6c-26 -53 -79 -82 -144 -82c-104 0 -193 92 -193 223s88 221 191 221c68 0 112 -30 137 -75l-3 66h135v-270c0 -43 20 -52 41 -52h18
v-104c-17 -3 -43 -5 -65 -5zM218 502l49 180h154l-101 -180h-102z" />
    <glyph glyph-name="uni1F00" unicode="&#x1f00;" horiz-adv-x="586" 
d="M271 109c58 0 96 38 96 105c0 63 -38 102 -96 102c-57 0 -93 -39 -93 -102c0 -67 36 -105 93 -105zM493 -5c-51 0 -99 24 -115 72l-2 6c-26 -53 -79 -82 -144 -82c-104 0 -193 92 -193 223s88 221 191 221c68 0 112 -30 137 -75l-3 66h135v-270c0 -43 20 -52 41 -52h18
v-104c-17 -3 -43 -5 -65 -5zM253 585c-28 0 -49 22 -49 52s21 58 63 58c52 0 85 -32 85 -84c0 -60 -47 -95 -113 -111l-15 38c39 10 48 25 48 43c0 3 -1 6 -2 6c-3 -2 -6 -2 -17 -2z" />
    <glyph glyph-name="uni1F01" unicode="&#x1f01;" horiz-adv-x="586" 
d="M271 109c58 0 96 38 96 105c0 63 -38 102 -96 102c-57 0 -93 -39 -93 -102c0 -67 36 -105 93 -105zM493 -5c-51 0 -99 24 -115 72l-2 6c-26 -53 -79 -82 -144 -82c-104 0 -193 92 -193 223s88 221 191 221c68 0 112 -30 137 -75l-3 66h135v-270c0 -43 20 -52 41 -52h18
v-104c-17 -3 -43 -5 -65 -5zM297 584c-11 0 -14 0 -17 2c-1 0 -2 -3 -2 -6c0 -18 9 -33 48 -43l-15 -38c-66 16 -113 51 -113 111c0 52 33 84 85 84c42 0 63 -28 63 -58s-21 -52 -49 -52z" />
    <glyph glyph-name="uni1F02" unicode="&#x1f02;" horiz-adv-x="586" 
d="M271 109c58 0 96 38 96 105c0 63 -38 102 -96 102c-57 0 -93 -39 -93 -102c0 -67 36 -105 93 -105zM493 -5c-51 0 -99 24 -115 72l-2 6c-26 -53 -79 -82 -144 -82c-104 0 -193 92 -193 223s88 221 191 221c68 0 112 -30 137 -75l-3 66h135v-270c0 -43 20 -52 41 -52h18
v-104c-17 -3 -43 -5 -65 -5zM153 580c-28 0 -49 22 -49 52s21 58 63 58c52 0 85 -32 85 -84c0 -60 -47 -95 -113 -111l-15 38c39 10 48 25 48 43c0 3 -1 6 -2 6c-3 -2 -6 -2 -17 -2zM469 504l-49 180h-154l101 -180h102z" />
    <glyph glyph-name="uni1F03" unicode="&#x1f03;" horiz-adv-x="586" 
d="M271 109c58 0 96 38 96 105c0 63 -38 102 -96 102c-57 0 -93 -39 -93 -102c0 -67 36 -105 93 -105zM493 -5c-51 0 -99 24 -115 72l-2 6c-26 -53 -79 -82 -144 -82c-104 0 -193 92 -193 223s88 221 191 221c68 0 112 -30 137 -75l-3 66h135v-270c0 -43 20 -52 41 -52h18
v-104c-17 -3 -43 -5 -65 -5zM201 581c-11 0 -14 0 -17 2c-1 0 -2 -3 -2 -6c0 -18 9 -33 48 -43l-15 -38c-66 16 -113 51 -113 111c0 52 33 84 85 84c42 0 63 -28 63 -58s-21 -52 -49 -52zM467 505l-49 180h-154l101 -180h102z" />
    <glyph glyph-name="uni1F04" unicode="&#x1f04;" horiz-adv-x="586" 
d="M271 109c58 0 96 38 96 105c0 63 -38 102 -96 102c-57 0 -93 -39 -93 -102c0 -67 36 -105 93 -105zM493 -5c-51 0 -99 24 -115 72l-2 6c-26 -53 -79 -82 -144 -82c-104 0 -193 92 -193 223s88 221 191 221c68 0 112 -30 137 -75l-3 66h135v-270c0 -43 20 -52 41 -52h18
v-104c-17 -3 -43 -5 -65 -5zM192 582c-28 0 -49 22 -49 52s21 58 63 58c52 0 85 -32 85 -84c0 -60 -47 -95 -113 -111l-15 38c39 10 48 25 48 43c0 3 -1 6 -2 6c-3 -2 -6 -2 -17 -2zM354 686l-49 -180h102l101 180h-154z" />
    <glyph glyph-name="uni1F05" unicode="&#x1f05;" horiz-adv-x="586" 
d="M271 109c58 0 96 38 96 105c0 63 -38 102 -96 102c-57 0 -93 -39 -93 -102c0 -67 36 -105 93 -105zM493 -5c-51 0 -99 24 -115 72l-2 6c-26 -53 -79 -82 -144 -82c-104 0 -193 92 -193 223s88 221 191 221c68 0 112 -30 137 -75l-3 66h135v-270c0 -43 20 -52 41 -52h18
v-104c-17 -3 -43 -5 -65 -5zM220 582c-11 0 -14 0 -17 2c-1 0 -2 -3 -2 -6c0 -18 9 -33 48 -43l-15 -38c-66 16 -113 51 -113 111c0 52 33 84 85 84c42 0 63 -28 63 -58s-21 -52 -49 -52zM338 686l-49 -180h102l101 180h-154z" />
    <glyph glyph-name="uni1F06" unicode="&#x1f06;" horiz-adv-x="586" 
d="M271 109c58 0 96 38 96 105c0 63 -38 102 -96 102c-57 0 -93 -39 -93 -102c0 -67 36 -105 93 -105zM493 -5c-51 0 -99 24 -115 72l-2 6c-26 -53 -79 -82 -144 -82c-104 0 -193 92 -193 223s88 221 191 221c68 0 112 -30 137 -75l-3 66h135v-270c0 -43 20 -52 41 -52h18
v-104c-17 -3 -43 -5 -65 -5zM259 579c-28 0 -49 22 -49 52s21 58 63 58c52 0 85 -32 85 -84c0 -60 -47 -95 -113 -111l-15 38c39 10 48 25 48 43c0 3 -1 6 -2 6c-3 -2 -6 -2 -17 -2zM310 819c13 0 26 4 43 28l54 -40c-21 -56 -61 -75 -91 -75c-24 0 -41 4 -58 10
c-11 5 -29 12 -39 12c-7 0 -24 -2 -45 -30l-57 48c28 49 60 70 100 70c20 0 34 -6 50 -13c18 -8 38 -10 43 -10z" />
    <glyph glyph-name="uni1F07" unicode="&#x1f07;" horiz-adv-x="586" 
d="M271 109c58 0 96 38 96 105c0 63 -38 102 -96 102c-57 0 -93 -39 -93 -102c0 -67 36 -105 93 -105zM493 -5c-51 0 -99 24 -115 72l-2 6c-26 -53 -79 -82 -144 -82c-104 0 -193 92 -193 223s88 221 191 221c68 0 112 -30 137 -75l-3 66h135v-270c0 -43 20 -52 41 -52h18
v-104c-17 -3 -43 -5 -65 -5zM295 579c-11 0 -14 0 -17 2c-1 0 -2 -3 -2 -6c0 -18 9 -33 48 -43l-15 -38c-66 16 -113 51 -113 111c0 52 33 84 85 84c42 0 63 -28 63 -58s-21 -52 -49 -52zM305 815c13 0 26 4 43 28l54 -40c-21 -56 -61 -75 -91 -75c-24 0 -41 4 -58 10
c-11 5 -29 12 -39 12c-7 0 -24 -2 -45 -30l-57 48c28 49 60 70 100 70c20 0 34 -6 50 -13c18 -8 38 -10 43 -10z" />
    <glyph glyph-name="uni1F80" unicode="&#x1f80;" horiz-adv-x="586" 
d="M271 109c58 0 96 38 96 105c0 63 -38 102 -96 102c-57 0 -93 -39 -93 -102c0 -67 36 -105 93 -105zM493 -5c-51 0 -99 24 -115 72l-2 6c-26 -53 -79 -82 -144 -82c-104 0 -193 92 -193 223s88 221 191 221c68 0 112 -30 137 -75l-3 66h135v-270c0 -43 20 -52 41 -52h18
v-104c-17 -3 -43 -5 -65 -5zM237 -52h113v-24c0 -11 8 -28 36 -28h19v-104c-11 -2 -42 -5 -57 -5c-88 0 -111 50 -111 123v38zM251 585c-28 0 -49 22 -49 52s21 58 63 58c52 0 85 -32 85 -84c0 -60 -47 -95 -113 -111l-15 38c39 10 48 25 48 43c0 3 -1 6 -2 6
c-3 -2 -6 -2 -17 -2z" />
    <glyph glyph-name="uni1F81" unicode="&#x1f81;" horiz-adv-x="586" 
d="M271 109c58 0 96 38 96 105c0 63 -38 102 -96 102c-57 0 -93 -39 -93 -102c0 -67 36 -105 93 -105zM493 -5c-51 0 -99 24 -115 72l-2 6c-26 -53 -79 -82 -144 -82c-104 0 -193 92 -193 223s88 221 191 221c68 0 112 -30 137 -75l-3 66h135v-270c0 -43 20 -52 41 -52h18
v-104c-17 -3 -43 -5 -65 -5zM237 -52h113v-24c0 -11 8 -28 36 -28h19v-104c-11 -2 -42 -5 -57 -5c-88 0 -111 50 -111 123v38zM295 584c-11 0 -14 0 -17 2c-1 0 -2 -3 -2 -6c0 -18 9 -33 48 -43l-15 -38c-66 16 -113 51 -113 111c0 52 33 84 85 84c42 0 63 -28 63 -58
s-21 -52 -49 -52z" />
    <glyph glyph-name="uni1F82" unicode="&#x1f82;" horiz-adv-x="586" 
d="M271 109c58 0 96 38 96 105c0 63 -38 102 -96 102c-57 0 -93 -39 -93 -102c0 -67 36 -105 93 -105zM493 -5c-51 0 -99 24 -115 72l-2 6c-26 -53 -79 -82 -144 -82c-104 0 -193 92 -193 223s88 221 191 221c68 0 112 -30 137 -75l-3 66h135v-270c0 -43 20 -52 41 -52h18
v-104c-17 -3 -43 -5 -65 -5zM237 -52h113v-24c0 -11 8 -28 36 -28h19v-104c-11 -2 -42 -5 -57 -5c-88 0 -111 50 -111 123v38zM151 580c-28 0 -49 22 -49 52s21 58 63 58c52 0 85 -32 85 -84c0 -60 -47 -95 -113 -111l-15 38c39 10 48 25 48 43c0 3 -1 6 -2 6
c-3 -2 -6 -2 -17 -2zM467 504l-49 180h-154l101 -180h102z" />
    <glyph glyph-name="uni1F83" unicode="&#x1f83;" horiz-adv-x="586" 
d="M271 109c58 0 96 38 96 105c0 63 -38 102 -96 102c-57 0 -93 -39 -93 -102c0 -67 36 -105 93 -105zM493 -5c-51 0 -99 24 -115 72l-2 6c-26 -53 -79 -82 -144 -82c-104 0 -193 92 -193 223s88 221 191 221c68 0 112 -30 137 -75l-3 66h135v-270c0 -43 20 -52 41 -52h18
v-104c-17 -3 -43 -5 -65 -5zM237 -52h113v-24c0 -11 8 -28 36 -28h19v-104c-11 -2 -42 -5 -57 -5c-88 0 -111 50 -111 123v38zM199 581c-11 0 -14 0 -17 2c-1 0 -2 -3 -2 -6c0 -18 9 -33 48 -43l-15 -38c-66 16 -113 51 -113 111c0 52 33 84 85 84c42 0 63 -28 63 -58
s-21 -52 -49 -52zM465 505l-49 180h-154l101 -180h102z" />
    <glyph glyph-name="uni1F84" unicode="&#x1f84;" horiz-adv-x="586" 
d="M271 109c58 0 96 38 96 105c0 63 -38 102 -96 102c-57 0 -93 -39 -93 -102c0 -67 36 -105 93 -105zM493 -5c-51 0 -99 24 -115 72l-2 6c-26 -53 -79 -82 -144 -82c-104 0 -193 92 -193 223s88 221 191 221c68 0 112 -30 137 -75l-3 66h135v-270c0 -43 20 -52 41 -52h18
v-104c-17 -3 -43 -5 -65 -5zM237 -52h113v-24c0 -11 8 -28 36 -28h19v-104c-11 -2 -42 -5 -57 -5c-88 0 -111 50 -111 123v38zM190 582c-28 0 -49 22 -49 52s21 58 63 58c52 0 85 -32 85 -84c0 -60 -47 -95 -113 -111l-15 38c39 10 48 25 48 43c0 3 -1 6 -2 6
c-3 -2 -6 -2 -17 -2zM352 686l-49 -180h102l101 180h-154z" />
    <glyph glyph-name="uni1F85" unicode="&#x1f85;" horiz-adv-x="586" 
d="M271 109c58 0 96 38 96 105c0 63 -38 102 -96 102c-57 0 -93 -39 -93 -102c0 -67 36 -105 93 -105zM493 -5c-51 0 -99 24 -115 72l-2 6c-26 -53 -79 -82 -144 -82c-104 0 -193 92 -193 223s88 221 191 221c68 0 112 -30 137 -75l-3 66h135v-270c0 -43 20 -52 41 -52h18
v-104c-17 -3 -43 -5 -65 -5zM237 -52h113v-24c0 -11 8 -28 36 -28h19v-104c-11 -2 -42 -5 -57 -5c-88 0 -111 50 -111 123v38zM218 582c-11 0 -14 0 -17 2c-1 0 -2 -3 -2 -6c0 -18 9 -33 48 -43l-15 -38c-66 16 -113 51 -113 111c0 52 33 84 85 84c42 0 63 -28 63 -58
s-21 -52 -49 -52zM336 686l-49 -180h102l101 180h-154z" />
    <glyph glyph-name="uni1F86" unicode="&#x1f86;" horiz-adv-x="586" 
d="M271 109c58 0 96 38 96 105c0 63 -38 102 -96 102c-57 0 -93 -39 -93 -102c0 -67 36 -105 93 -105zM493 -5c-51 0 -99 24 -115 72l-2 6c-26 -53 -79 -82 -144 -82c-104 0 -193 92 -193 223s88 221 191 221c68 0 112 -30 137 -75l-3 66h135v-270c0 -43 20 -52 41 -52h18
v-104c-17 -3 -43 -5 -65 -5zM237 -52h113v-24c0 -11 8 -28 36 -28h19v-104c-11 -2 -42 -5 -57 -5c-88 0 -111 50 -111 123v38zM257 579c-28 0 -49 22 -49 52s21 58 63 58c52 0 85 -32 85 -84c0 -60 -47 -95 -113 -111l-15 38c39 10 48 25 48 43c0 3 -1 6 -2 6
c-3 -2 -6 -2 -17 -2zM308 819c13 0 26 4 43 28l54 -40c-21 -56 -61 -75 -91 -75c-24 0 -41 4 -58 10c-11 5 -29 12 -39 12c-7 0 -24 -2 -45 -30l-57 48c28 49 60 70 100 70c20 0 34 -6 50 -13c18 -8 38 -10 43 -10z" />
    <glyph glyph-name="uni1F87" unicode="&#x1f87;" horiz-adv-x="586" 
d="M271 109c58 0 96 38 96 105c0 63 -38 102 -96 102c-57 0 -93 -39 -93 -102c0 -67 36 -105 93 -105zM493 -5c-51 0 -99 24 -115 72l-2 6c-26 -53 -79 -82 -144 -82c-104 0 -193 92 -193 223s88 221 191 221c68 0 112 -30 137 -75l-3 66h135v-270c0 -43 20 -52 41 -52h18
v-104c-17 -3 -43 -5 -65 -5zM237 -52h113v-24c0 -11 8 -28 36 -28h19v-104c-11 -2 -42 -5 -57 -5c-88 0 -111 50 -111 123v38zM293 579c-11 0 -14 0 -17 2c-1 0 -2 -3 -2 -6c0 -18 9 -33 48 -43l-15 -38c-66 16 -113 51 -113 111c0 52 33 84 85 84c42 0 63 -28 63 -58
s-21 -52 -49 -52zM303 815c13 0 26 4 43 28l54 -40c-21 -56 -61 -75 -91 -75c-24 0 -41 4 -58 10c-11 5 -29 12 -39 12c-7 0 -24 -2 -45 -30l-57 48c28 49 60 70 100 70c20 0 34 -6 50 -13c18 -8 38 -10 43 -10z" />
    <glyph glyph-name="uni1FB2" unicode="&#x1fb2;" horiz-adv-x="586" 
d="M271 109c58 0 96 38 96 105c0 63 -38 102 -96 102c-57 0 -93 -39 -93 -102c0 -67 36 -105 93 -105zM493 -5c-51 0 -99 24 -115 72l-2 6c-26 -53 -79 -82 -144 -82c-104 0 -193 92 -193 223s88 221 191 221c68 0 112 -30 137 -75l-3 66h135v-270c0 -43 20 -52 41 -52h18
v-104c-17 -3 -43 -5 -65 -5zM237 -52h113v-24c0 -11 8 -28 36 -28h19v-104c-11 -2 -42 -5 -57 -5c-88 0 -111 50 -111 123v38zM279 683l49 -180h-102l-101 180h154z" />
    <glyph glyph-name="uni1FB4" unicode="&#x1fb4;" horiz-adv-x="586" 
d="M271 109c58 0 96 38 96 105c0 63 -38 102 -96 102c-57 0 -93 -39 -93 -102c0 -67 36 -105 93 -105zM493 -5c-51 0 -99 24 -115 72l-2 6c-26 -53 -79 -82 -144 -82c-104 0 -193 92 -193 223s88 221 191 221c68 0 112 -30 137 -75l-3 66h135v-270c0 -43 20 -52 41 -52h18
v-104c-17 -3 -43 -5 -65 -5zM237 -52h113v-24c0 -11 8 -28 36 -28h19v-104c-11 -2 -42 -5 -57 -5c-88 0 -111 50 -111 123v38zM216 502l49 180h154l-101 -180h-102z" />
    <glyph glyph-name="uni1FB7" unicode="&#x1fb7;" horiz-adv-x="586" 
d="M271 109c58 0 96 38 96 105c0 63 -38 102 -96 102c-57 0 -93 -39 -93 -102c0 -67 36 -105 93 -105zM493 -5c-51 0 -99 24 -115 72l-2 6c-26 -53 -79 -82 -144 -82c-104 0 -193 92 -193 223s88 221 191 221c68 0 112 -30 137 -75l-3 66h135v-270c0 -43 20 -52 41 -52h18
v-104c-17 -3 -43 -5 -65 -5zM237 -52h113v-24c0 -11 8 -28 36 -28h19v-104c-11 -2 -42 -5 -57 -5c-88 0 -111 50 -111 123v38zM316 597c13 0 26 4 43 28l54 -40c-21 -56 -61 -75 -91 -75c-24 0 -41 4 -58 10c-11 5 -29 12 -39 12c-7 0 -24 -2 -45 -30l-57 48
c28 49 60 70 100 70c20 0 34 -6 50 -13c18 -8 38 -10 43 -10z" />
    <glyph glyph-name="uni1FB0" unicode="&#x1fb0;" horiz-adv-x="586" 
d="M271 109c58 0 96 38 96 105c0 63 -38 102 -96 102c-57 0 -93 -39 -93 -102c0 -67 36 -105 93 -105zM493 -5c-51 0 -99 24 -115 72l-2 6c-26 -53 -79 -82 -144 -82c-104 0 -193 92 -193 223s88 221 191 221c68 0 112 -30 137 -75l-3 66h135v-270c0 -43 20 -52 41 -52h18
v-104c-17 -3 -43 -5 -65 -5zM277 518c-96 0 -154 60 -162 140l103 15c5 -34 22 -57 59 -57s54 23 59 57l103 -15c-8 -80 -66 -140 -162 -140z" />
    <glyph glyph-name="uni1FB1" unicode="&#x1fb1;" horiz-adv-x="586" 
d="M271 109c58 0 96 38 96 105c0 63 -38 102 -96 102c-57 0 -93 -39 -93 -102c0 -67 36 -105 93 -105zM493 -5c-51 0 -99 24 -115 72l-2 6c-26 -53 -79 -82 -144 -82c-104 0 -193 92 -193 223s88 221 191 221c68 0 112 -30 137 -75l-3 66h135v-270c0 -43 20 -52 41 -52h18
v-104c-17 -3 -43 -5 -65 -5zM155 509v99h244v-99h-244z" />
    <glyph glyph-name="uni1FB6" unicode="&#x1fb6;" horiz-adv-x="586" 
d="M271 109c58 0 96 38 96 105c0 63 -38 102 -96 102c-57 0 -93 -39 -93 -102c0 -67 36 -105 93 -105zM493 -5c-51 0 -99 24 -115 72l-2 6c-26 -53 -79 -82 -144 -82c-104 0 -193 92 -193 223s88 221 191 221c68 0 112 -30 137 -75l-3 66h135v-270c0 -43 20 -52 41 -52h18
v-104c-17 -3 -43 -5 -65 -5zM318 597c13 0 26 4 43 28l54 -40c-21 -56 -61 -75 -91 -75c-24 0 -41 4 -58 10c-11 5 -29 12 -39 12c-7 0 -24 -2 -45 -30l-57 48c28 49 60 70 100 70c20 0 34 -6 50 -13c18 -8 38 -10 43 -10z" />
    <glyph glyph-name="uni1F72" unicode="&#x1f72;" horiz-adv-x="478" 
d="M126 229c-41 9 -70 44 -70 79c0 84 90 127 188 127c87 0 156 -28 203 -71l-73 -82c-32 29 -83 43 -116 43c-39 0 -69 -12 -69 -38c0 -16 15 -25 33 -25h89v-78h-89c-11 0 -45 -2 -45 -34c0 -33 32 -45 78 -45c61 0 91 19 128 48l68 -88c-58 -47 -125 -74 -223 -74
c-115 0 -188 52 -188 130c0 53 30 90 86 108zM248 683l49 -180h-102l-101 180h154z" />
    <glyph glyph-name="uni1F73" unicode="&#x1f73;" horiz-adv-x="478" 
d="M126 229c-41 9 -70 44 -70 79c0 84 90 127 188 127c87 0 156 -28 203 -71l-73 -82c-32 29 -83 43 -116 43c-39 0 -69 -12 -69 -38c0 -16 15 -25 33 -25h89v-78h-89c-11 0 -45 -2 -45 -34c0 -33 32 -45 78 -45c61 0 91 19 128 48l68 -88c-58 -47 -125 -74 -223 -74
c-115 0 -188 52 -188 130c0 53 30 90 86 108zM185 502l49 180h154l-101 -180h-102z" />
    <glyph glyph-name="uni1F10" unicode="&#x1f10;" horiz-adv-x="478" 
d="M126 229c-41 9 -70 44 -70 79c0 84 90 127 188 127c87 0 156 -28 203 -71l-73 -82c-32 29 -83 43 -116 43c-39 0 -69 -12 -69 -38c0 -16 15 -25 33 -25h89v-78h-89c-11 0 -45 -2 -45 -34c0 -33 32 -45 78 -45c61 0 91 19 128 48l68 -88c-58 -47 -125 -74 -223 -74
c-115 0 -188 52 -188 130c0 53 30 90 86 108zM220 585c-28 0 -49 22 -49 52s21 58 63 58c52 0 85 -32 85 -84c0 -60 -47 -95 -113 -111l-15 38c39 10 48 25 48 43c0 3 -1 6 -2 6c-3 -2 -6 -2 -17 -2z" />
    <glyph glyph-name="uni1F11" unicode="&#x1f11;" horiz-adv-x="478" 
d="M126 229c-41 9 -70 44 -70 79c0 84 90 127 188 127c87 0 156 -28 203 -71l-73 -82c-32 29 -83 43 -116 43c-39 0 -69 -12 -69 -38c0 -16 15 -25 33 -25h89v-78h-89c-11 0 -45 -2 -45 -34c0 -33 32 -45 78 -45c61 0 91 19 128 48l68 -88c-58 -47 -125 -74 -223 -74
c-115 0 -188 52 -188 130c0 53 30 90 86 108zM264 584c-11 0 -14 0 -17 2c-1 0 -2 -3 -2 -6c0 -18 9 -33 48 -43l-15 -38c-66 16 -113 51 -113 111c0 52 33 84 85 84c42 0 63 -28 63 -58s-21 -52 -49 -52z" />
    <glyph glyph-name="uni1F12" unicode="&#x1f12;" horiz-adv-x="478" 
d="M126 229c-41 9 -70 44 -70 79c0 84 90 127 188 127c87 0 156 -28 203 -71l-73 -82c-32 29 -83 43 -116 43c-39 0 -69 -12 -69 -38c0 -16 15 -25 33 -25h89v-78h-89c-11 0 -45 -2 -45 -34c0 -33 32 -45 78 -45c61 0 91 19 128 48l68 -88c-58 -47 -125 -74 -223 -74
c-115 0 -188 52 -188 130c0 53 30 90 86 108zM120 580c-28 0 -49 22 -49 52s21 58 63 58c52 0 85 -32 85 -84c0 -60 -47 -95 -113 -111l-15 38c39 10 48 25 48 43c0 3 -1 6 -2 6c-3 -2 -6 -2 -17 -2zM436 504l-49 180h-154l101 -180h102z" />
    <glyph glyph-name="uni1F13" unicode="&#x1f13;" horiz-adv-x="478" 
d="M126 229c-41 9 -70 44 -70 79c0 84 90 127 188 127c87 0 156 -28 203 -71l-73 -82c-32 29 -83 43 -116 43c-39 0 -69 -12 -69 -38c0 -16 15 -25 33 -25h89v-78h-89c-11 0 -45 -2 -45 -34c0 -33 32 -45 78 -45c61 0 91 19 128 48l68 -88c-58 -47 -125 -74 -223 -74
c-115 0 -188 52 -188 130c0 53 30 90 86 108zM168 581c-11 0 -14 0 -17 2c-1 0 -2 -3 -2 -6c0 -18 9 -33 48 -43l-15 -38c-66 16 -113 51 -113 111c0 52 33 84 85 84c42 0 63 -28 63 -58s-21 -52 -49 -52zM434 505l-49 180h-154l101 -180h102z" />
    <glyph glyph-name="uni1F14" unicode="&#x1f14;" horiz-adv-x="478" 
d="M126 229c-41 9 -70 44 -70 79c0 84 90 127 188 127c87 0 156 -28 203 -71l-73 -82c-32 29 -83 43 -116 43c-39 0 -69 -12 -69 -38c0 -16 15 -25 33 -25h89v-78h-89c-11 0 -45 -2 -45 -34c0 -33 32 -45 78 -45c61 0 91 19 128 48l68 -88c-58 -47 -125 -74 -223 -74
c-115 0 -188 52 -188 130c0 53 30 90 86 108zM159 582c-28 0 -49 22 -49 52s21 58 63 58c52 0 85 -32 85 -84c0 -60 -47 -95 -113 -111l-15 38c39 10 48 25 48 43c0 3 -1 6 -2 6c-3 -2 -6 -2 -17 -2zM321 686l-49 -180h102l101 180h-154z" />
    <glyph glyph-name="uni1F15" unicode="&#x1f15;" horiz-adv-x="478" 
d="M126 229c-41 9 -70 44 -70 79c0 84 90 127 188 127c87 0 156 -28 203 -71l-73 -82c-32 29 -83 43 -116 43c-39 0 -69 -12 -69 -38c0 -16 15 -25 33 -25h89v-78h-89c-11 0 -45 -2 -45 -34c0 -33 32 -45 78 -45c61 0 91 19 128 48l68 -88c-58 -47 -125 -74 -223 -74
c-115 0 -188 52 -188 130c0 53 30 90 86 108zM187 582c-11 0 -14 0 -17 2c-1 0 -2 -3 -2 -6c0 -18 9 -33 48 -43l-15 -38c-66 16 -113 51 -113 111c0 52 33 84 85 84c42 0 63 -28 63 -58s-21 -52 -49 -52zM305 686l-49 -180h102l101 180h-154z" />
    <glyph glyph-name="uni1F74" unicode="&#x1f74;" horiz-adv-x="530" 
d="M53 0v426h135l-3 -70c26 51 76 79 135 79c93 0 160 -68 160 -189v-458h-135v449c0 48 -23 75 -71 75c-54 0 -86 -30 -86 -84v-228h-135zM251 683l49 -180h-102l-101 180h154z" />
    <glyph glyph-name="uni1F75" unicode="&#x1f75;" horiz-adv-x="530" 
d="M53 0v426h135l-3 -70c26 51 76 79 135 79c93 0 160 -68 160 -189v-458h-135v449c0 48 -23 75 -71 75c-54 0 -86 -30 -86 -84v-228h-135zM188 502l49 180h154l-101 -180h-102z" />
    <glyph glyph-name="uni1F20" unicode="&#x1f20;" horiz-adv-x="530" 
d="M53 0v426h135l-3 -70c26 51 76 79 135 79c93 0 160 -68 160 -189v-458h-135v449c0 48 -23 75 -71 75c-54 0 -86 -30 -86 -84v-228h-135zM223 585c-28 0 -49 22 -49 52s21 58 63 58c52 0 85 -32 85 -84c0 -60 -47 -95 -113 -111l-15 38c39 10 48 25 48 43c0 3 -1 6 -2 6
c-3 -2 -6 -2 -17 -2z" />
    <glyph glyph-name="uni1F21" unicode="&#x1f21;" horiz-adv-x="530" 
d="M53 0v426h135l-3 -70c26 51 76 79 135 79c93 0 160 -68 160 -189v-458h-135v449c0 48 -23 75 -71 75c-54 0 -86 -30 -86 -84v-228h-135zM267 584c-11 0 -14 0 -17 2c-1 0 -2 -3 -2 -6c0 -18 9 -33 48 -43l-15 -38c-66 16 -113 51 -113 111c0 52 33 84 85 84
c42 0 63 -28 63 -58s-21 -52 -49 -52z" />
    <glyph glyph-name="uni1F22" unicode="&#x1f22;" horiz-adv-x="530" 
d="M53 0v426h135l-3 -70c26 51 76 79 135 79c93 0 160 -68 160 -189v-458h-135v449c0 48 -23 75 -71 75c-54 0 -86 -30 -86 -84v-228h-135zM123 580c-28 0 -49 22 -49 52s21 58 63 58c52 0 85 -32 85 -84c0 -60 -47 -95 -113 -111l-15 38c39 10 48 25 48 43c0 3 -1 6 -2 6
c-3 -2 -6 -2 -17 -2zM439 504l-49 180h-154l101 -180h102z" />
    <glyph glyph-name="uni1F23" unicode="&#x1f23;" horiz-adv-x="530" 
d="M53 0v426h135l-3 -70c26 51 76 79 135 79c93 0 160 -68 160 -189v-458h-135v449c0 48 -23 75 -71 75c-54 0 -86 -30 -86 -84v-228h-135zM171 581c-11 0 -14 0 -17 2c-1 0 -2 -3 -2 -6c0 -18 9 -33 48 -43l-15 -38c-66 16 -113 51 -113 111c0 52 33 84 85 84
c42 0 63 -28 63 -58s-21 -52 -49 -52zM437 505l-49 180h-154l101 -180h102z" />
    <glyph glyph-name="uni1F24" unicode="&#x1f24;" horiz-adv-x="530" 
d="M53 0v426h135l-3 -70c26 51 76 79 135 79c93 0 160 -68 160 -189v-458h-135v449c0 48 -23 75 -71 75c-54 0 -86 -30 -86 -84v-228h-135zM162 582c-28 0 -49 22 -49 52s21 58 63 58c52 0 85 -32 85 -84c0 -60 -47 -95 -113 -111l-15 38c39 10 48 25 48 43c0 3 -1 6 -2 6
c-3 -2 -6 -2 -17 -2zM324 686l-49 -180h102l101 180h-154z" />
    <glyph glyph-name="uni1F25" unicode="&#x1f25;" horiz-adv-x="530" 
d="M53 0v426h135l-3 -70c26 51 76 79 135 79c93 0 160 -68 160 -189v-458h-135v449c0 48 -23 75 -71 75c-54 0 -86 -30 -86 -84v-228h-135zM190 582c-11 0 -14 0 -17 2c-1 0 -2 -3 -2 -6c0 -18 9 -33 48 -43l-15 -38c-66 16 -113 51 -113 111c0 52 33 84 85 84
c42 0 63 -28 63 -58s-21 -52 -49 -52zM308 686l-49 -180h102l101 180h-154z" />
    <glyph glyph-name="uni1F26" unicode="&#x1f26;" horiz-adv-x="530" 
d="M53 0v426h135l-3 -70c26 51 76 79 135 79c93 0 160 -68 160 -189v-458h-135v449c0 48 -23 75 -71 75c-54 0 -86 -30 -86 -84v-228h-135zM229 579c-28 0 -49 22 -49 52s21 58 63 58c52 0 85 -32 85 -84c0 -60 -47 -95 -113 -111l-15 38c39 10 48 25 48 43c0 3 -1 6 -2 6
c-3 -2 -6 -2 -17 -2zM280 819c13 0 26 4 43 28l54 -40c-21 -56 -61 -75 -91 -75c-24 0 -41 4 -58 10c-11 5 -29 12 -39 12c-7 0 -24 -2 -45 -30l-57 48c28 49 60 70 100 70c20 0 34 -6 50 -13c18 -8 38 -10 43 -10z" />
    <glyph glyph-name="uni1F27" unicode="&#x1f27;" horiz-adv-x="530" 
d="M53 0v426h135l-3 -70c26 51 76 79 135 79c93 0 160 -68 160 -189v-458h-135v449c0 48 -23 75 -71 75c-54 0 -86 -30 -86 -84v-228h-135zM265 579c-11 0 -14 0 -17 2c-1 0 -2 -3 -2 -6c0 -18 9 -33 48 -43l-15 -38c-66 16 -113 51 -113 111c0 52 33 84 85 84
c42 0 63 -28 63 -58s-21 -52 -49 -52zM275 815c13 0 26 4 43 28l54 -40c-21 -56 -61 -75 -91 -75c-24 0 -41 4 -58 10c-11 5 -29 12 -39 12c-7 0 -24 -2 -45 -30l-57 48c28 49 60 70 100 70c20 0 34 -6 50 -13c18 -8 38 -10 43 -10z" />
    <glyph glyph-name="uni1F90" unicode="&#x1f90;" horiz-adv-x="530" 
d="M53 0v426h135l-3 -70c26 51 76 79 135 79c93 0 160 -68 160 -189v-458h-135v449c0 48 -23 75 -71 75c-54 0 -86 -30 -86 -84v-228h-135zM53 -52h113v-24c0 -11 8 -28 36 -28h19v-104c-11 -2 -42 -5 -57 -5c-88 0 -111 50 -111 123v38zM223 585c-28 0 -49 22 -49 52
s21 58 63 58c52 0 85 -32 85 -84c0 -60 -47 -95 -113 -111l-15 38c39 10 48 25 48 43c0 3 -1 6 -2 6c-3 -2 -6 -2 -17 -2z" />
    <glyph glyph-name="uni1F91" unicode="&#x1f91;" horiz-adv-x="530" 
d="M53 0v426h135l-3 -70c26 51 76 79 135 79c93 0 160 -68 160 -189v-458h-135v449c0 48 -23 75 -71 75c-54 0 -86 -30 -86 -84v-228h-135zM53 -52h113v-24c0 -11 8 -28 36 -28h19v-104c-11 -2 -42 -5 -57 -5c-88 0 -111 50 -111 123v38zM267 584c-11 0 -14 0 -17 2
c-1 0 -2 -3 -2 -6c0 -18 9 -33 48 -43l-15 -38c-66 16 -113 51 -113 111c0 52 33 84 85 84c42 0 63 -28 63 -58s-21 -52 -49 -52z" />
    <glyph glyph-name="uni1F92" unicode="&#x1f92;" horiz-adv-x="530" 
d="M53 0v426h135l-3 -70c26 51 76 79 135 79c93 0 160 -68 160 -189v-458h-135v449c0 48 -23 75 -71 75c-54 0 -86 -30 -86 -84v-228h-135zM53 -52h113v-24c0 -11 8 -28 36 -28h19v-104c-11 -2 -42 -5 -57 -5c-88 0 -111 50 -111 123v38zM123 580c-28 0 -49 22 -49 52
s21 58 63 58c52 0 85 -32 85 -84c0 -60 -47 -95 -113 -111l-15 38c39 10 48 25 48 43c0 3 -1 6 -2 6c-3 -2 -6 -2 -17 -2zM439 504l-49 180h-154l101 -180h102z" />
    <glyph glyph-name="uni1F93" unicode="&#x1f93;" horiz-adv-x="530" 
d="M53 0v426h135l-3 -70c26 51 76 79 135 79c93 0 160 -68 160 -189v-458h-135v449c0 48 -23 75 -71 75c-54 0 -86 -30 -86 -84v-228h-135zM53 -52h113v-24c0 -11 8 -28 36 -28h19v-104c-11 -2 -42 -5 -57 -5c-88 0 -111 50 -111 123v38zM171 581c-11 0 -14 0 -17 2
c-1 0 -2 -3 -2 -6c0 -18 9 -33 48 -43l-15 -38c-66 16 -113 51 -113 111c0 52 33 84 85 84c42 0 63 -28 63 -58s-21 -52 -49 -52zM437 505l-49 180h-154l101 -180h102z" />
    <glyph glyph-name="uni1F94" unicode="&#x1f94;" horiz-adv-x="530" 
d="M53 0v426h135l-3 -70c26 51 76 79 135 79c93 0 160 -68 160 -189v-458h-135v449c0 48 -23 75 -71 75c-54 0 -86 -30 -86 -84v-228h-135zM53 -52h113v-24c0 -11 8 -28 36 -28h19v-104c-11 -2 -42 -5 -57 -5c-88 0 -111 50 -111 123v38zM162 582c-28 0 -49 22 -49 52
s21 58 63 58c52 0 85 -32 85 -84c0 -60 -47 -95 -113 -111l-15 38c39 10 48 25 48 43c0 3 -1 6 -2 6c-3 -2 -6 -2 -17 -2zM324 686l-49 -180h102l101 180h-154z" />
    <glyph glyph-name="uni1F95" unicode="&#x1f95;" horiz-adv-x="530" 
d="M53 0v426h135l-3 -70c26 51 76 79 135 79c93 0 160 -68 160 -189v-458h-135v449c0 48 -23 75 -71 75c-54 0 -86 -30 -86 -84v-228h-135zM53 -52h113v-24c0 -11 8 -28 36 -28h19v-104c-11 -2 -42 -5 -57 -5c-88 0 -111 50 -111 123v38zM190 582c-11 0 -14 0 -17 2
c-1 0 -2 -3 -2 -6c0 -18 9 -33 48 -43l-15 -38c-66 16 -113 51 -113 111c0 52 33 84 85 84c42 0 63 -28 63 -58s-21 -52 -49 -52zM308 686l-49 -180h102l101 180h-154z" />
    <glyph glyph-name="uni1F96" unicode="&#x1f96;" horiz-adv-x="530" 
d="M53 0v426h135l-3 -70c26 51 76 79 135 79c93 0 160 -68 160 -189v-458h-135v449c0 48 -23 75 -71 75c-54 0 -86 -30 -86 -84v-228h-135zM53 -52h113v-24c0 -11 8 -28 36 -28h19v-104c-11 -2 -42 -5 -57 -5c-88 0 -111 50 -111 123v38zM229 579c-28 0 -49 22 -49 52
s21 58 63 58c52 0 85 -32 85 -84c0 -60 -47 -95 -113 -111l-15 38c39 10 48 25 48 43c0 3 -1 6 -2 6c-3 -2 -6 -2 -17 -2zM280 819c13 0 26 4 43 28l54 -40c-21 -56 -61 -75 -91 -75c-24 0 -41 4 -58 10c-11 5 -29 12 -39 12c-7 0 -24 -2 -45 -30l-57 48c28 49 60 70 100 70
c20 0 34 -6 50 -13c18 -8 38 -10 43 -10z" />
    <glyph glyph-name="uni1F97" unicode="&#x1f97;" horiz-adv-x="530" 
d="M53 0v426h135l-3 -70c26 51 76 79 135 79c93 0 160 -68 160 -189v-458h-135v449c0 48 -23 75 -71 75c-54 0 -86 -30 -86 -84v-228h-135zM53 -52h113v-24c0 -11 8 -28 36 -28h19v-104c-11 -2 -42 -5 -57 -5c-88 0 -111 50 -111 123v38zM265 579c-11 0 -14 0 -17 2
c-1 0 -2 -3 -2 -6c0 -18 9 -33 48 -43l-15 -38c-66 16 -113 51 -113 111c0 52 33 84 85 84c42 0 63 -28 63 -58s-21 -52 -49 -52zM275 815c13 0 26 4 43 28l54 -40c-21 -56 -61 -75 -91 -75c-24 0 -41 4 -58 10c-11 5 -29 12 -39 12c-7 0 -24 -2 -45 -30l-57 48
c28 49 60 70 100 70c20 0 34 -6 50 -13c18 -8 38 -10 43 -10z" />
    <glyph glyph-name="uni1FC2" unicode="&#x1fc2;" horiz-adv-x="530" 
d="M53 0v426h135l-3 -70c26 51 76 79 135 79c93 0 160 -68 160 -189v-458h-135v449c0 48 -23 75 -71 75c-54 0 -86 -30 -86 -84v-228h-135zM53 -52h113v-24c0 -11 8 -28 36 -28h19v-104c-11 -2 -42 -5 -57 -5c-88 0 -111 50 -111 123v38zM251 683l49 -180h-102l-101 180h154
z" />
    <glyph glyph-name="uni1FC4" unicode="&#x1fc4;" horiz-adv-x="530" 
d="M53 0v426h135l-3 -70c26 51 76 79 135 79c93 0 160 -68 160 -189v-458h-135v449c0 48 -23 75 -71 75c-54 0 -86 -30 -86 -84v-228h-135zM53 -52h113v-24c0 -11 8 -28 36 -28h19v-104c-11 -2 -42 -5 -57 -5c-88 0 -111 50 -111 123v38zM188 502l49 180h154l-101 -180h-102
z" />
    <glyph glyph-name="uni1FC7" unicode="&#x1fc7;" horiz-adv-x="530" 
d="M53 0v426h135l-3 -70c26 51 76 79 135 79c93 0 160 -68 160 -189v-458h-135v449c0 48 -23 75 -71 75c-54 0 -86 -30 -86 -84v-228h-135zM53 -52h113v-24c0 -11 8 -28 36 -28h19v-104c-11 -2 -42 -5 -57 -5c-88 0 -111 50 -111 123v38zM288 597c13 0 26 4 43 28l54 -40
c-21 -56 -61 -75 -91 -75c-24 0 -41 4 -58 10c-11 5 -29 12 -39 12c-7 0 -24 -2 -45 -30l-57 48c28 49 60 70 100 70c20 0 34 -6 50 -13c18 -8 38 -10 43 -10z" />
    <glyph glyph-name="uni1FC6" unicode="&#x1fc6;" horiz-adv-x="530" 
d="M53 0v426h135l-3 -70c26 51 76 79 135 79c93 0 160 -68 160 -189v-458h-135v449c0 48 -23 75 -71 75c-54 0 -86 -30 -86 -84v-228h-135zM288 597c13 0 26 4 43 28l54 -40c-21 -56 -61 -75 -91 -75c-24 0 -41 4 -58 10c-11 5 -29 12 -39 12c-7 0 -24 -2 -45 -30l-57 48
c28 49 60 70 100 70c20 0 34 -6 50 -13c18 -8 38 -10 43 -10z" />
    <glyph glyph-name="uni1F76" unicode="&#x1f76;" horiz-adv-x="280" 
d="M193 426v-270c0 -43 20 -52 41 -52h18v-104c-17 -3 -43 -5 -65 -5c-56 0 -129 20 -129 127v304h135zM137 683l49 -180h-102l-101 180h154z" />
    <glyph glyph-name="uni1F77" unicode="&#x1f77;" horiz-adv-x="280" 
d="M193 426v-270c0 -43 20 -52 41 -52h18v-104c-17 -3 -43 -5 -65 -5c-56 0 -129 20 -129 127v304h135zM74 502l49 180h154l-101 -180h-102z" />
    <glyph glyph-name="uni1F30" unicode="&#x1f30;" horiz-adv-x="280" 
d="M193 426v-270c0 -43 20 -52 41 -52h18v-104c-17 -3 -43 -5 -65 -5c-56 0 -129 20 -129 127v304h135zM109 585c-28 0 -49 22 -49 52s21 58 63 58c52 0 85 -32 85 -84c0 -60 -47 -95 -113 -111l-15 38c39 10 48 25 48 43c0 3 -1 6 -2 6c-3 -2 -6 -2 -17 -2z" />
    <glyph glyph-name="uni1F31" unicode="&#x1f31;" horiz-adv-x="280" 
d="M193 426v-270c0 -43 20 -52 41 -52h18v-104c-17 -3 -43 -5 -65 -5c-56 0 -129 20 -129 127v304h135zM153 584c-11 0 -14 0 -17 2c-1 0 -2 -3 -2 -6c0 -18 9 -33 48 -43l-15 -38c-66 16 -113 51 -113 111c0 52 33 84 85 84c42 0 63 -28 63 -58s-21 -52 -49 -52z" />
    <glyph glyph-name="uni1F32" unicode="&#x1f32;" horiz-adv-x="280" 
d="M193 426v-270c0 -43 20 -52 41 -52h18v-104c-17 -3 -43 -5 -65 -5c-56 0 -129 20 -129 127v304h135zM9 580c-28 0 -49 22 -49 52s21 58 63 58c52 0 85 -32 85 -84c0 -60 -47 -95 -113 -111l-15 38c39 10 48 25 48 43c0 3 -1 6 -2 6c-3 -2 -6 -2 -17 -2zM325 504l-49 180
h-154l101 -180h102z" />
    <glyph glyph-name="uni1F33" unicode="&#x1f33;" horiz-adv-x="280" 
d="M193 426v-270c0 -43 20 -52 41 -52h18v-104c-17 -3 -43 -5 -65 -5c-56 0 -129 20 -129 127v304h135zM57 581c-11 0 -14 0 -17 2c-1 0 -2 -3 -2 -6c0 -18 9 -33 48 -43l-15 -38c-66 16 -113 51 -113 111c0 52 33 84 85 84c42 0 63 -28 63 -58s-21 -52 -49 -52zM323 505
l-49 180h-154l101 -180h102z" />
    <glyph glyph-name="uni1F34" unicode="&#x1f34;" horiz-adv-x="280" 
d="M193 426v-270c0 -43 20 -52 41 -52h18v-104c-17 -3 -43 -5 -65 -5c-56 0 -129 20 -129 127v304h135zM48 582c-28 0 -49 22 -49 52s21 58 63 58c52 0 85 -32 85 -84c0 -60 -47 -95 -113 -111l-15 38c39 10 48 25 48 43c0 3 -1 6 -2 6c-3 -2 -6 -2 -17 -2zM210 686
l-49 -180h102l101 180h-154z" />
    <glyph glyph-name="uni1F35" unicode="&#x1f35;" horiz-adv-x="280" 
d="M193 426v-270c0 -43 20 -52 41 -52h18v-104c-17 -3 -43 -5 -65 -5c-56 0 -129 20 -129 127v304h135zM76 582c-11 0 -14 0 -17 2c-1 0 -2 -3 -2 -6c0 -18 9 -33 48 -43l-15 -38c-66 16 -113 51 -113 111c0 52 33 84 85 84c42 0 63 -28 63 -58s-21 -52 -49 -52zM194 686
l-49 -180h102l101 180h-154z" />
    <glyph glyph-name="uni1F36" unicode="&#x1f36;" horiz-adv-x="280" 
d="M193 426v-270c0 -43 20 -52 41 -52h18v-104c-17 -3 -43 -5 -65 -5c-56 0 -129 20 -129 127v304h135zM115 579c-28 0 -49 22 -49 52s21 58 63 58c52 0 85 -32 85 -84c0 -60 -47 -95 -113 -111l-15 38c39 10 48 25 48 43c0 3 -1 6 -2 6c-3 -2 -6 -2 -17 -2zM166 819
c13 0 26 4 43 28l54 -40c-21 -56 -61 -75 -91 -75c-24 0 -41 4 -58 10c-11 5 -29 12 -39 12c-7 0 -24 -2 -45 -30l-57 48c28 49 60 70 100 70c20 0 34 -6 50 -13c18 -8 38 -10 43 -10z" />
    <glyph glyph-name="uni1F37" unicode="&#x1f37;" horiz-adv-x="280" 
d="M193 426v-270c0 -43 20 -52 41 -52h18v-104c-17 -3 -43 -5 -65 -5c-56 0 -129 20 -129 127v304h135zM151 579c-11 0 -14 0 -17 2c-1 0 -2 -3 -2 -6c0 -18 9 -33 48 -43l-15 -38c-66 16 -113 51 -113 111c0 52 33 84 85 84c42 0 63 -28 63 -58s-21 -52 -49 -52zM161 815
c13 0 26 4 43 28l54 -40c-21 -56 -61 -75 -91 -75c-24 0 -41 4 -58 10c-11 5 -29 12 -39 12c-7 0 -24 -2 -45 -30l-57 48c28 49 60 70 100 70c20 0 34 -6 50 -13c18 -8 38 -10 43 -10z" />
    <glyph glyph-name="uni1FD0" unicode="&#x1fd0;" horiz-adv-x="280" 
d="M193 426v-270c0 -43 20 -52 41 -52h18v-104c-17 -3 -43 -5 -65 -5c-56 0 -129 20 -129 127v304h135zM133 518c-96 0 -154 60 -162 140l103 15c5 -34 22 -57 59 -57s54 23 59 57l103 -15c-8 -80 -66 -140 -162 -140z" />
    <glyph glyph-name="uni1FD1" unicode="&#x1fd1;" horiz-adv-x="280" 
d="M193 426v-270c0 -43 20 -52 41 -52h18v-104c-17 -3 -43 -5 -65 -5c-56 0 -129 20 -129 127v304h135zM11 509v99h244v-99h-244z" />
    <glyph glyph-name="uni1FD2" unicode="&#x1fd2;" horiz-adv-x="280" 
d="M193 426v-270c0 -43 20 -52 41 -52h18v-104c-17 -3 -43 -5 -65 -5c-56 0 -129 20 -129 127v304h135zM136 679l39 -169h-80l-80 169h121zM250 505c-32 0 -61 27 -61 61c0 33 29 61 61 61c31 0 61 -28 61 -61c0 -34 -30 -61 -61 -61zM-27 505c-32 0 -61 27 -61 61
c0 33 29 61 61 61c31 0 61 -28 61 -61c0 -34 -30 -61 -61 -61z" />
    <glyph glyph-name="uni1FD3" unicode="&#x1fd3;" horiz-adv-x="280" 
d="M193 426v-270c0 -43 20 -52 41 -52h18v-104c-17 -3 -43 -5 -65 -5c-56 0 -129 20 -129 127v304h135zM93 510l39 169h121l-80 -169h-80zM18 505c-31 0 -61 27 -61 61c0 33 30 61 61 61c32 0 61 -28 61 -61c0 -34 -29 -61 -61 -61zM295 505c-31 0 -61 27 -61 61
c0 33 30 61 61 61c32 0 61 -28 61 -61c0 -34 -29 -61 -61 -61z" />
    <glyph glyph-name="uni1FD6" unicode="&#x1fd6;" horiz-adv-x="280" 
d="M193 426v-270c0 -43 20 -52 41 -52h18v-104c-17 -3 -43 -5 -65 -5c-56 0 -129 20 -129 127v304h135zM174 597c13 0 26 4 43 28l54 -40c-21 -56 -61 -75 -91 -75c-24 0 -41 4 -58 10c-11 5 -29 12 -39 12c-7 0 -24 -2 -45 -30l-57 48c28 49 60 70 100 70
c20 0 34 -6 50 -13c18 -8 38 -10 43 -10z" />
    <glyph glyph-name="uni1FD7" unicode="&#x1fd7;" horiz-adv-x="280" 
d="M193 426v-270c0 -43 20 -52 41 -52h18v-104c-17 -3 -43 -5 -65 -5c-56 0 -129 20 -129 127v304h135zM174 747c13 0 26 4 43 28l54 -40c-21 -56 -61 -75 -91 -75c-24 0 -41 4 -58 10c-11 5 -29 12 -39 12c-7 0 -24 -2 -45 -30l-57 48c28 49 60 70 100 70
c20 0 34 -6 50 -13c18 -8 38 -10 43 -10zM226 501c-31 0 -61 27 -61 60c0 34 30 61 61 61c32 0 61 -27 61 -61c0 -33 -29 -60 -61 -60zM52 501c-31 0 -61 27 -61 60c0 34 30 61 61 61c32 0 61 -27 61 -61c0 -33 -29 -60 -61 -60z" />
    <glyph glyph-name="uni1F78" unicode="&#x1f78;" horiz-adv-x="545" 
d="M273 -9c-132 0 -235 92 -235 221c0 130 103 223 235 223s234 -93 234 -223c0 -129 -102 -221 -234 -221zM273 105c60 0 96 44 96 107c0 64 -36 107 -96 107s-97 -43 -97 -107c0 -63 37 -107 97 -107zM275 683l49 -180h-102l-101 180h154z" />
    <glyph glyph-name="uni1F79" unicode="&#x1f79;" horiz-adv-x="545" 
d="M273 -9c-132 0 -235 92 -235 221c0 130 103 223 235 223s234 -93 234 -223c0 -129 -102 -221 -234 -221zM273 105c60 0 96 44 96 107c0 64 -36 107 -96 107s-97 -43 -97 -107c0 -63 37 -107 97 -107zM212 502l49 180h154l-101 -180h-102z" />
    <glyph glyph-name="uni1F40" unicode="&#x1f40;" horiz-adv-x="545" 
d="M273 -9c-132 0 -235 92 -235 221c0 130 103 223 235 223s234 -93 234 -223c0 -129 -102 -221 -234 -221zM273 105c60 0 96 44 96 107c0 64 -36 107 -96 107s-97 -43 -97 -107c0 -63 37 -107 97 -107zM247 585c-28 0 -49 22 -49 52s21 58 63 58c52 0 85 -32 85 -84
c0 -60 -47 -95 -113 -111l-15 38c39 10 48 25 48 43c0 3 -1 6 -2 6c-3 -2 -6 -2 -17 -2z" />
    <glyph glyph-name="uni1F41" unicode="&#x1f41;" horiz-adv-x="545" 
d="M273 -9c-132 0 -235 92 -235 221c0 130 103 223 235 223s234 -93 234 -223c0 -129 -102 -221 -234 -221zM273 105c60 0 96 44 96 107c0 64 -36 107 -96 107s-97 -43 -97 -107c0 -63 37 -107 97 -107zM291 584c-11 0 -14 0 -17 2c-1 0 -2 -3 -2 -6c0 -18 9 -33 48 -43
l-15 -38c-66 16 -113 51 -113 111c0 52 33 84 85 84c42 0 63 -28 63 -58s-21 -52 -49 -52z" />
    <glyph glyph-name="uni1F42" unicode="&#x1f42;" horiz-adv-x="545" 
d="M273 -9c-132 0 -235 92 -235 221c0 130 103 223 235 223s234 -93 234 -223c0 -129 -102 -221 -234 -221zM273 105c60 0 96 44 96 107c0 64 -36 107 -96 107s-97 -43 -97 -107c0 -63 37 -107 97 -107zM147 580c-28 0 -49 22 -49 52s21 58 63 58c52 0 85 -32 85 -84
c0 -60 -47 -95 -113 -111l-15 38c39 10 48 25 48 43c0 3 -1 6 -2 6c-3 -2 -6 -2 -17 -2zM463 504l-49 180h-154l101 -180h102z" />
    <glyph glyph-name="uni1F43" unicode="&#x1f43;" horiz-adv-x="545" 
d="M273 -9c-132 0 -235 92 -235 221c0 130 103 223 235 223s234 -93 234 -223c0 -129 -102 -221 -234 -221zM273 105c60 0 96 44 96 107c0 64 -36 107 -96 107s-97 -43 -97 -107c0 -63 37 -107 97 -107zM195 581c-11 0 -14 0 -17 2c-1 0 -2 -3 -2 -6c0 -18 9 -33 48 -43
l-15 -38c-66 16 -113 51 -113 111c0 52 33 84 85 84c42 0 63 -28 63 -58s-21 -52 -49 -52zM461 505l-49 180h-154l101 -180h102z" />
    <glyph glyph-name="uni1F44" unicode="&#x1f44;" horiz-adv-x="545" 
d="M273 -9c-132 0 -235 92 -235 221c0 130 103 223 235 223s234 -93 234 -223c0 -129 -102 -221 -234 -221zM273 105c60 0 96 44 96 107c0 64 -36 107 -96 107s-97 -43 -97 -107c0 -63 37 -107 97 -107zM186 582c-28 0 -49 22 -49 52s21 58 63 58c52 0 85 -32 85 -84
c0 -60 -47 -95 -113 -111l-15 38c39 10 48 25 48 43c0 3 -1 6 -2 6c-3 -2 -6 -2 -17 -2zM348 686l-49 -180h102l101 180h-154z" />
    <glyph glyph-name="uni1F45" unicode="&#x1f45;" horiz-adv-x="545" 
d="M273 -9c-132 0 -235 92 -235 221c0 130 103 223 235 223s234 -93 234 -223c0 -129 -102 -221 -234 -221zM273 105c60 0 96 44 96 107c0 64 -36 107 -96 107s-97 -43 -97 -107c0 -63 37 -107 97 -107zM214 582c-11 0 -14 0 -17 2c-1 0 -2 -3 -2 -6c0 -18 9 -33 48 -43
l-15 -38c-66 16 -113 51 -113 111c0 52 33 84 85 84c42 0 63 -28 63 -58s-21 -52 -49 -52zM332 686l-49 -180h102l101 180h-154z" />
    <glyph glyph-name="uni1FE4" unicode="&#x1fe4;" horiz-adv-x="540" 
d="M178 40v-252h-135v425c0 128 93 221 226 221c139 0 233 -95 233 -223s-97 -219 -203 -219c-35 0 -86 9 -121 48zM174 211c0 -63 37 -104 95 -104s95 41 95 104s-33 108 -93 108c-59 0 -97 -45 -97 -108zM240 585c-28 0 -49 22 -49 52s21 58 63 58c52 0 85 -32 85 -84
c0 -60 -47 -95 -113 -111l-15 38c39 10 48 25 48 43c0 3 -1 6 -2 6c-3 -2 -6 -2 -17 -2z" />
    <glyph glyph-name="uni1FE5" unicode="&#x1fe5;" horiz-adv-x="540" 
d="M178 40v-252h-135v425c0 128 93 221 226 221c139 0 233 -95 233 -223s-97 -219 -203 -219c-35 0 -86 9 -121 48zM174 211c0 -63 37 -104 95 -104s95 41 95 104s-33 108 -93 108c-59 0 -97 -45 -97 -108zM284 584c-11 0 -14 0 -17 2c-1 0 -2 -3 -2 -6c0 -18 9 -33 48 -43
l-15 -38c-66 16 -113 51 -113 111c0 52 33 84 85 84c42 0 63 -28 63 -58s-21 -52 -49 -52z" />
    <glyph glyph-name="uni1F50" unicode="&#x1f50;" horiz-adv-x="507" 
d="M248 -11c-135 0 -203 78 -203 203v234h135v-231c0 -58 20 -89 73 -89c54 0 74 31 74 89v231h135v-234c0 -125 -78 -203 -214 -203zM228 585c-28 0 -49 22 -49 52s21 58 63 58c52 0 85 -32 85 -84c0 -60 -47 -95 -113 -111l-15 38c39 10 48 25 48 43c0 3 -1 6 -2 6
c-3 -2 -6 -2 -17 -2z" />
    <glyph glyph-name="uni1F51" unicode="&#x1f51;" horiz-adv-x="507" 
d="M248 -11c-135 0 -203 78 -203 203v234h135v-231c0 -58 20 -89 73 -89c54 0 74 31 74 89v231h135v-234c0 -125 -78 -203 -214 -203zM272 584c-11 0 -14 0 -17 2c-1 0 -2 -3 -2 -6c0 -18 9 -33 48 -43l-15 -38c-66 16 -113 51 -113 111c0 52 33 84 85 84
c42 0 63 -28 63 -58s-21 -52 -49 -52z" />
    <glyph glyph-name="uni1F52" unicode="&#x1f52;" horiz-adv-x="507" 
d="M248 -11c-135 0 -203 78 -203 203v234h135v-231c0 -58 20 -89 73 -89c54 0 74 31 74 89v231h135v-234c0 -125 -78 -203 -214 -203zM128 580c-28 0 -49 22 -49 52s21 58 63 58c52 0 85 -32 85 -84c0 -60 -47 -95 -113 -111l-15 38c39 10 48 25 48 43c0 3 -1 6 -2 6
c-3 -2 -6 -2 -17 -2zM444 504l-49 180h-154l101 -180h102z" />
    <glyph glyph-name="uni1F53" unicode="&#x1f53;" horiz-adv-x="507" 
d="M248 -11c-135 0 -203 78 -203 203v234h135v-231c0 -58 20 -89 73 -89c54 0 74 31 74 89v231h135v-234c0 -125 -78 -203 -214 -203zM176 581c-11 0 -14 0 -17 2c-1 0 -2 -3 -2 -6c0 -18 9 -33 48 -43l-15 -38c-66 16 -113 51 -113 111c0 52 33 84 85 84
c42 0 63 -28 63 -58s-21 -52 -49 -52zM442 505l-49 180h-154l101 -180h102z" />
    <glyph glyph-name="uni1F54" unicode="&#x1f54;" horiz-adv-x="507" 
d="M248 -11c-135 0 -203 78 -203 203v234h135v-231c0 -58 20 -89 73 -89c54 0 74 31 74 89v231h135v-234c0 -125 -78 -203 -214 -203zM167 582c-28 0 -49 22 -49 52s21 58 63 58c52 0 85 -32 85 -84c0 -60 -47 -95 -113 -111l-15 38c39 10 48 25 48 43c0 3 -1 6 -2 6
c-3 -2 -6 -2 -17 -2zM329 686l-49 -180h102l101 180h-154z" />
    <glyph glyph-name="uni1F55" unicode="&#x1f55;" horiz-adv-x="507" 
d="M248 -11c-135 0 -203 78 -203 203v234h135v-231c0 -58 20 -89 73 -89c54 0 74 31 74 89v231h135v-234c0 -125 -78 -203 -214 -203zM195 582c-11 0 -14 0 -17 2c-1 0 -2 -3 -2 -6c0 -18 9 -33 48 -43l-15 -38c-66 16 -113 51 -113 111c0 52 33 84 85 84
c42 0 63 -28 63 -58s-21 -52 -49 -52zM313 686l-49 -180h102l101 180h-154z" />
    <glyph glyph-name="uni1F56" unicode="&#x1f56;" horiz-adv-x="507" 
d="M248 -11c-135 0 -203 78 -203 203v234h135v-231c0 -58 20 -89 73 -89c54 0 74 31 74 89v231h135v-234c0 -125 -78 -203 -214 -203zM234 579c-28 0 -49 22 -49 52s21 58 63 58c52 0 85 -32 85 -84c0 -60 -47 -95 -113 -111l-15 38c39 10 48 25 48 43c0 3 -1 6 -2 6
c-3 -2 -6 -2 -17 -2zM285 819c13 0 26 4 43 28l54 -40c-21 -56 -61 -75 -91 -75c-24 0 -41 4 -58 10c-11 5 -29 12 -39 12c-7 0 -24 -2 -45 -30l-57 48c28 49 60 70 100 70c20 0 34 -6 50 -13c18 -8 38 -10 43 -10z" />
    <glyph glyph-name="uni1F57" unicode="&#x1f57;" horiz-adv-x="507" 
d="M248 -11c-135 0 -203 78 -203 203v234h135v-231c0 -58 20 -89 73 -89c54 0 74 31 74 89v231h135v-234c0 -125 -78 -203 -214 -203zM270 579c-11 0 -14 0 -17 2c-1 0 -2 -3 -2 -6c0 -18 9 -33 48 -43l-15 -38c-66 16 -113 51 -113 111c0 52 33 84 85 84
c42 0 63 -28 63 -58s-21 -52 -49 -52zM280 815c13 0 26 4 43 28l54 -40c-21 -56 -61 -75 -91 -75c-24 0 -41 4 -58 10c-11 5 -29 12 -39 12c-7 0 -24 -2 -45 -30l-57 48c28 49 60 70 100 70c20 0 34 -6 50 -13c18 -8 38 -10 43 -10z" />
    <glyph glyph-name="uni1F7A" unicode="&#x1f7a;" horiz-adv-x="507" 
d="M248 -11c-135 0 -203 78 -203 203v234h135v-231c0 -58 20 -89 73 -89c54 0 74 31 74 89v231h135v-234c0 -125 -78 -203 -214 -203zM256 683l49 -180h-102l-101 180h154z" />
    <glyph glyph-name="uni1F7B" unicode="&#x1f7b;" horiz-adv-x="507" 
d="M248 -11c-135 0 -203 78 -203 203v234h135v-231c0 -58 20 -89 73 -89c54 0 74 31 74 89v231h135v-234c0 -125 -78 -203 -214 -203zM193 502l49 180h154l-101 -180h-102z" />
    <glyph glyph-name="uni1FE0" unicode="&#x1fe0;" horiz-adv-x="507" 
d="M248 -11c-135 0 -203 78 -203 203v234h135v-231c0 -58 20 -89 73 -89c54 0 74 31 74 89v231h135v-234c0 -125 -78 -203 -214 -203zM252 518c-96 0 -154 60 -162 140l103 15c5 -34 22 -57 59 -57s54 23 59 57l103 -15c-8 -80 -66 -140 -162 -140z" />
    <glyph glyph-name="uni1FE1" unicode="&#x1fe1;" horiz-adv-x="507" 
d="M248 -11c-135 0 -203 78 -203 203v234h135v-231c0 -58 20 -89 73 -89c54 0 74 31 74 89v231h135v-234c0 -125 -78 -203 -214 -203zM130 509v99h244v-99h-244z" />
    <glyph glyph-name="uni1FE2" unicode="&#x1fe2;" horiz-adv-x="507" 
d="M248 -11c-135 0 -203 78 -203 203v234h135v-231c0 -58 20 -89 73 -89c54 0 74 31 74 89v231h135v-234c0 -125 -78 -203 -214 -203zM255 679l39 -169h-80l-80 169h121zM369 505c-32 0 -61 27 -61 61c0 33 29 61 61 61c31 0 61 -28 61 -61c0 -34 -30 -61 -61 -61zM92 505
c-32 0 -61 27 -61 61c0 33 29 61 61 61c31 0 61 -28 61 -61c0 -34 -30 -61 -61 -61z" />
    <glyph glyph-name="uni1FE3" unicode="&#x1fe3;" horiz-adv-x="507" 
d="M248 -11c-135 0 -203 78 -203 203v234h135v-231c0 -58 20 -89 73 -89c54 0 74 31 74 89v231h135v-234c0 -125 -78 -203 -214 -203zM212 510l39 169h121l-80 -169h-80zM137 505c-31 0 -61 27 -61 61c0 33 30 61 61 61c32 0 61 -28 61 -61c0 -34 -29 -61 -61 -61zM414 505
c-31 0 -61 27 -61 61c0 33 30 61 61 61c32 0 61 -28 61 -61c0 -34 -29 -61 -61 -61z" />
    <glyph glyph-name="uni1FE6" unicode="&#x1fe6;" horiz-adv-x="507" 
d="M248 -11c-135 0 -203 78 -203 203v234h135v-231c0 -58 20 -89 73 -89c54 0 74 31 74 89v231h135v-234c0 -125 -78 -203 -214 -203zM293 597c13 0 26 4 43 28l54 -40c-21 -56 -61 -75 -91 -75c-24 0 -41 4 -58 10c-11 5 -29 12 -39 12c-7 0 -24 -2 -45 -30l-57 48
c28 49 60 70 100 70c20 0 34 -6 50 -13c18 -8 38 -10 43 -10z" />
    <glyph glyph-name="uni1FE7" unicode="&#x1fe7;" horiz-adv-x="507" 
d="M248 -11c-135 0 -203 78 -203 203v234h135v-231c0 -58 20 -89 73 -89c54 0 74 31 74 89v231h135v-234c0 -125 -78 -203 -214 -203zM293 747c13 0 26 4 43 28l54 -40c-21 -56 -61 -75 -91 -75c-24 0 -41 4 -58 10c-11 5 -29 12 -39 12c-7 0 -24 -2 -45 -30l-57 48
c28 49 60 70 100 70c20 0 34 -6 50 -13c18 -8 38 -10 43 -10zM345 501c-31 0 -61 27 -61 60c0 34 30 61 61 61c32 0 61 -27 61 -61c0 -33 -29 -60 -61 -60zM171 501c-31 0 -61 27 -61 60c0 34 30 61 61 61c32 0 61 -27 61 -61c0 -33 -29 -60 -61 -60z" />
    <glyph glyph-name="uni1F7C" unicode="&#x1f7c;" horiz-adv-x="694" 
d="M347 79c-24 -63 -71 -88 -129 -88c-127 0 -180 102 -180 207c0 125 76 232 226 237v-116c-60 -8 -89 -50 -89 -118c0 -46 14 -96 60 -96c29 0 45 22 45 56v115h134v-115c0 -34 16 -56 45 -56c46 0 60 50 60 96c0 68 -29 110 -89 118v116c150 -5 226 -112 226 -237
c0 -105 -53 -207 -180 -207c-58 0 -105 25 -129 88zM350 683l49 -180h-102l-101 180h154z" />
    <glyph glyph-name="uni1F7D" unicode="&#x1f7d;" horiz-adv-x="694" 
d="M347 79c-24 -63 -71 -88 -129 -88c-127 0 -180 102 -180 207c0 125 76 232 226 237v-116c-60 -8 -89 -50 -89 -118c0 -46 14 -96 60 -96c29 0 45 22 45 56v115h134v-115c0 -34 16 -56 45 -56c46 0 60 50 60 96c0 68 -29 110 -89 118v116c150 -5 226 -112 226 -237
c0 -105 -53 -207 -180 -207c-58 0 -105 25 -129 88zM287 502l49 180h154l-101 -180h-102z" />
    <glyph glyph-name="uni1F60" unicode="&#x1f60;" horiz-adv-x="694" 
d="M347 79c-24 -63 -71 -88 -129 -88c-127 0 -180 102 -180 207c0 125 76 232 226 237v-116c-60 -8 -89 -50 -89 -118c0 -46 14 -96 60 -96c29 0 45 22 45 56v115h134v-115c0 -34 16 -56 45 -56c46 0 60 50 60 96c0 68 -29 110 -89 118v116c150 -5 226 -112 226 -237
c0 -105 -53 -207 -180 -207c-58 0 -105 25 -129 88zM322 585c-28 0 -49 22 -49 52s21 58 63 58c52 0 85 -32 85 -84c0 -60 -47 -95 -113 -111l-15 38c39 10 48 25 48 43c0 3 -1 6 -2 6c-3 -2 -6 -2 -17 -2z" />
    <glyph glyph-name="uni1F61" unicode="&#x1f61;" horiz-adv-x="694" 
d="M347 79c-24 -63 -71 -88 -129 -88c-127 0 -180 102 -180 207c0 125 76 232 226 237v-116c-60 -8 -89 -50 -89 -118c0 -46 14 -96 60 -96c29 0 45 22 45 56v115h134v-115c0 -34 16 -56 45 -56c46 0 60 50 60 96c0 68 -29 110 -89 118v116c150 -5 226 -112 226 -237
c0 -105 -53 -207 -180 -207c-58 0 -105 25 -129 88zM366 584c-11 0 -14 0 -17 2c-1 0 -2 -3 -2 -6c0 -18 9 -33 48 -43l-15 -38c-66 16 -113 51 -113 111c0 52 33 84 85 84c42 0 63 -28 63 -58s-21 -52 -49 -52z" />
    <glyph glyph-name="uni1F62" unicode="&#x1f62;" horiz-adv-x="694" 
d="M347 79c-24 -63 -71 -88 -129 -88c-127 0 -180 102 -180 207c0 125 76 232 226 237v-116c-60 -8 -89 -50 -89 -118c0 -46 14 -96 60 -96c29 0 45 22 45 56v115h134v-115c0 -34 16 -56 45 -56c46 0 60 50 60 96c0 68 -29 110 -89 118v116c150 -5 226 -112 226 -237
c0 -105 -53 -207 -180 -207c-58 0 -105 25 -129 88zM222 580c-28 0 -49 22 -49 52s21 58 63 58c52 0 85 -32 85 -84c0 -60 -47 -95 -113 -111l-15 38c39 10 48 25 48 43c0 3 -1 6 -2 6c-3 -2 -6 -2 -17 -2zM538 504l-49 180h-154l101 -180h102z" />
    <glyph glyph-name="uni1F63" unicode="&#x1f63;" horiz-adv-x="694" 
d="M347 79c-24 -63 -71 -88 -129 -88c-127 0 -180 102 -180 207c0 125 76 232 226 237v-116c-60 -8 -89 -50 -89 -118c0 -46 14 -96 60 -96c29 0 45 22 45 56v115h134v-115c0 -34 16 -56 45 -56c46 0 60 50 60 96c0 68 -29 110 -89 118v116c150 -5 226 -112 226 -237
c0 -105 -53 -207 -180 -207c-58 0 -105 25 -129 88zM270 581c-11 0 -14 0 -17 2c-1 0 -2 -3 -2 -6c0 -18 9 -33 48 -43l-15 -38c-66 16 -113 51 -113 111c0 52 33 84 85 84c42 0 63 -28 63 -58s-21 -52 -49 -52zM536 505l-49 180h-154l101 -180h102z" />
    <glyph glyph-name="uni1F64" unicode="&#x1f64;" horiz-adv-x="694" 
d="M347 79c-24 -63 -71 -88 -129 -88c-127 0 -180 102 -180 207c0 125 76 232 226 237v-116c-60 -8 -89 -50 -89 -118c0 -46 14 -96 60 -96c29 0 45 22 45 56v115h134v-115c0 -34 16 -56 45 -56c46 0 60 50 60 96c0 68 -29 110 -89 118v116c150 -5 226 -112 226 -237
c0 -105 -53 -207 -180 -207c-58 0 -105 25 -129 88zM261 582c-28 0 -49 22 -49 52s21 58 63 58c52 0 85 -32 85 -84c0 -60 -47 -95 -113 -111l-15 38c39 10 48 25 48 43c0 3 -1 6 -2 6c-3 -2 -6 -2 -17 -2zM423 686l-49 -180h102l101 180h-154z" />
    <glyph glyph-name="uni1F65" unicode="&#x1f65;" horiz-adv-x="694" 
d="M347 79c-24 -63 -71 -88 -129 -88c-127 0 -180 102 -180 207c0 125 76 232 226 237v-116c-60 -8 -89 -50 -89 -118c0 -46 14 -96 60 -96c29 0 45 22 45 56v115h134v-115c0 -34 16 -56 45 -56c46 0 60 50 60 96c0 68 -29 110 -89 118v116c150 -5 226 -112 226 -237
c0 -105 -53 -207 -180 -207c-58 0 -105 25 -129 88zM289 582c-11 0 -14 0 -17 2c-1 0 -2 -3 -2 -6c0 -18 9 -33 48 -43l-15 -38c-66 16 -113 51 -113 111c0 52 33 84 85 84c42 0 63 -28 63 -58s-21 -52 -49 -52zM407 686l-49 -180h102l101 180h-154z" />
    <glyph glyph-name="uni1F66" unicode="&#x1f66;" horiz-adv-x="694" 
d="M347 79c-24 -63 -71 -88 -129 -88c-127 0 -180 102 -180 207c0 125 76 232 226 237v-116c-60 -8 -89 -50 -89 -118c0 -46 14 -96 60 -96c29 0 45 22 45 56v115h134v-115c0 -34 16 -56 45 -56c46 0 60 50 60 96c0 68 -29 110 -89 118v116c150 -5 226 -112 226 -237
c0 -105 -53 -207 -180 -207c-58 0 -105 25 -129 88zM328 579c-28 0 -49 22 -49 52s21 58 63 58c52 0 85 -32 85 -84c0 -60 -47 -95 -113 -111l-15 38c39 10 48 25 48 43c0 3 -1 6 -2 6c-3 -2 -6 -2 -17 -2zM379 819c13 0 26 4 43 28l54 -40c-21 -56 -61 -75 -91 -75
c-24 0 -41 4 -58 10c-11 5 -29 12 -39 12c-7 0 -24 -2 -45 -30l-57 48c28 49 60 70 100 70c20 0 34 -6 50 -13c18 -8 38 -10 43 -10z" />
    <glyph glyph-name="uni1F67" unicode="&#x1f67;" horiz-adv-x="694" 
d="M347 79c-24 -63 -71 -88 -129 -88c-127 0 -180 102 -180 207c0 125 76 232 226 237v-116c-60 -8 -89 -50 -89 -118c0 -46 14 -96 60 -96c29 0 45 22 45 56v115h134v-115c0 -34 16 -56 45 -56c46 0 60 50 60 96c0 68 -29 110 -89 118v116c150 -5 226 -112 226 -237
c0 -105 -53 -207 -180 -207c-58 0 -105 25 -129 88zM364 579c-11 0 -14 0 -17 2c-1 0 -2 -3 -2 -6c0 -18 9 -33 48 -43l-15 -38c-66 16 -113 51 -113 111c0 52 33 84 85 84c42 0 63 -28 63 -58s-21 -52 -49 -52zM374 815c13 0 26 4 43 28l54 -40c-21 -56 -61 -75 -91 -75
c-24 0 -41 4 -58 10c-11 5 -29 12 -39 12c-7 0 -24 -2 -45 -30l-57 48c28 49 60 70 100 70c20 0 34 -6 50 -13c18 -8 38 -10 43 -10z" />
    <glyph glyph-name="uni1FA0" unicode="&#x1fa0;" horiz-adv-x="694" 
d="M347 79c-24 -63 -71 -88 -129 -88c-127 0 -180 102 -180 207c0 125 76 232 226 237v-116c-60 -8 -89 -50 -89 -118c0 -46 14 -96 60 -96c29 0 45 22 45 56v115h134v-115c0 -34 16 -56 45 -56c46 0 60 50 60 96c0 68 -29 110 -89 118v116c150 -5 226 -112 226 -237
c0 -105 -53 -207 -180 -207c-58 0 -105 25 -129 88zM295 -52h113v-24c0 -11 8 -28 36 -28h19v-104c-11 -2 -42 -5 -57 -5c-88 0 -111 50 -111 123v38zM322 585c-28 0 -49 22 -49 52s21 58 63 58c52 0 85 -32 85 -84c0 -60 -47 -95 -113 -111l-15 38c39 10 48 25 48 43
c0 3 -1 6 -2 6c-3 -2 -6 -2 -17 -2z" />
    <glyph glyph-name="uni1FA1" unicode="&#x1fa1;" horiz-adv-x="694" 
d="M347 79c-24 -63 -71 -88 -129 -88c-127 0 -180 102 -180 207c0 125 76 232 226 237v-116c-60 -8 -89 -50 -89 -118c0 -46 14 -96 60 -96c29 0 45 22 45 56v115h134v-115c0 -34 16 -56 45 -56c46 0 60 50 60 96c0 68 -29 110 -89 118v116c150 -5 226 -112 226 -237
c0 -105 -53 -207 -180 -207c-58 0 -105 25 -129 88zM295 -52h113v-24c0 -11 8 -28 36 -28h19v-104c-11 -2 -42 -5 -57 -5c-88 0 -111 50 -111 123v38zM366 584c-11 0 -14 0 -17 2c-1 0 -2 -3 -2 -6c0 -18 9 -33 48 -43l-15 -38c-66 16 -113 51 -113 111c0 52 33 84 85 84
c42 0 63 -28 63 -58s-21 -52 -49 -52z" />
    <glyph glyph-name="uni1FA2" unicode="&#x1fa2;" horiz-adv-x="694" 
d="M347 79c-24 -63 -71 -88 -129 -88c-127 0 -180 102 -180 207c0 125 76 232 226 237v-116c-60 -8 -89 -50 -89 -118c0 -46 14 -96 60 -96c29 0 45 22 45 56v115h134v-115c0 -34 16 -56 45 -56c46 0 60 50 60 96c0 68 -29 110 -89 118v116c150 -5 226 -112 226 -237
c0 -105 -53 -207 -180 -207c-58 0 -105 25 -129 88zM295 -52h113v-24c0 -11 8 -28 36 -28h19v-104c-11 -2 -42 -5 -57 -5c-88 0 -111 50 -111 123v38zM222 580c-28 0 -49 22 -49 52s21 58 63 58c52 0 85 -32 85 -84c0 -60 -47 -95 -113 -111l-15 38c39 10 48 25 48 43
c0 3 -1 6 -2 6c-3 -2 -6 -2 -17 -2zM538 504l-49 180h-154l101 -180h102z" />
    <glyph glyph-name="uni1FA3" unicode="&#x1fa3;" horiz-adv-x="694" 
d="M347 79c-24 -63 -71 -88 -129 -88c-127 0 -180 102 -180 207c0 125 76 232 226 237v-116c-60 -8 -89 -50 -89 -118c0 -46 14 -96 60 -96c29 0 45 22 45 56v115h134v-115c0 -34 16 -56 45 -56c46 0 60 50 60 96c0 68 -29 110 -89 118v116c150 -5 226 -112 226 -237
c0 -105 -53 -207 -180 -207c-58 0 -105 25 -129 88zM295 -52h113v-24c0 -11 8 -28 36 -28h19v-104c-11 -2 -42 -5 -57 -5c-88 0 -111 50 -111 123v38zM270 581c-11 0 -14 0 -17 2c-1 0 -2 -3 -2 -6c0 -18 9 -33 48 -43l-15 -38c-66 16 -113 51 -113 111c0 52 33 84 85 84
c42 0 63 -28 63 -58s-21 -52 -49 -52zM536 505l-49 180h-154l101 -180h102z" />
    <glyph glyph-name="uni1FA4" unicode="&#x1fa4;" horiz-adv-x="694" 
d="M347 79c-24 -63 -71 -88 -129 -88c-127 0 -180 102 -180 207c0 125 76 232 226 237v-116c-60 -8 -89 -50 -89 -118c0 -46 14 -96 60 -96c29 0 45 22 45 56v115h134v-115c0 -34 16 -56 45 -56c46 0 60 50 60 96c0 68 -29 110 -89 118v116c150 -5 226 -112 226 -237
c0 -105 -53 -207 -180 -207c-58 0 -105 25 -129 88zM295 -52h113v-24c0 -11 8 -28 36 -28h19v-104c-11 -2 -42 -5 -57 -5c-88 0 -111 50 -111 123v38zM261 582c-28 0 -49 22 -49 52s21 58 63 58c52 0 85 -32 85 -84c0 -60 -47 -95 -113 -111l-15 38c39 10 48 25 48 43
c0 3 -1 6 -2 6c-3 -2 -6 -2 -17 -2zM423 686l-49 -180h102l101 180h-154z" />
    <glyph glyph-name="uni1FA5" unicode="&#x1fa5;" horiz-adv-x="694" 
d="M347 79c-24 -63 -71 -88 -129 -88c-127 0 -180 102 -180 207c0 125 76 232 226 237v-116c-60 -8 -89 -50 -89 -118c0 -46 14 -96 60 -96c29 0 45 22 45 56v115h134v-115c0 -34 16 -56 45 -56c46 0 60 50 60 96c0 68 -29 110 -89 118v116c150 -5 226 -112 226 -237
c0 -105 -53 -207 -180 -207c-58 0 -105 25 -129 88zM295 -52h113v-24c0 -11 8 -28 36 -28h19v-104c-11 -2 -42 -5 -57 -5c-88 0 -111 50 -111 123v38zM289 582c-11 0 -14 0 -17 2c-1 0 -2 -3 -2 -6c0 -18 9 -33 48 -43l-15 -38c-66 16 -113 51 -113 111c0 52 33 84 85 84
c42 0 63 -28 63 -58s-21 -52 -49 -52zM407 686l-49 -180h102l101 180h-154z" />
    <glyph glyph-name="uni1FA6" unicode="&#x1fa6;" horiz-adv-x="694" 
d="M347 79c-24 -63 -71 -88 -129 -88c-127 0 -180 102 -180 207c0 125 76 232 226 237v-116c-60 -8 -89 -50 -89 -118c0 -46 14 -96 60 -96c29 0 45 22 45 56v115h134v-115c0 -34 16 -56 45 -56c46 0 60 50 60 96c0 68 -29 110 -89 118v116c150 -5 226 -112 226 -237
c0 -105 -53 -207 -180 -207c-58 0 -105 25 -129 88zM295 -52h113v-24c0 -11 8 -28 36 -28h19v-104c-11 -2 -42 -5 -57 -5c-88 0 -111 50 -111 123v38zM328 579c-28 0 -49 22 -49 52s21 58 63 58c52 0 85 -32 85 -84c0 -60 -47 -95 -113 -111l-15 38c39 10 48 25 48 43
c0 3 -1 6 -2 6c-3 -2 -6 -2 -17 -2zM379 819c13 0 26 4 43 28l54 -40c-21 -56 -61 -75 -91 -75c-24 0 -41 4 -58 10c-11 5 -29 12 -39 12c-7 0 -24 -2 -45 -30l-57 48c28 49 60 70 100 70c20 0 34 -6 50 -13c18 -8 38 -10 43 -10z" />
    <glyph glyph-name="uni1FA7" unicode="&#x1fa7;" horiz-adv-x="694" 
d="M347 79c-24 -63 -71 -88 -129 -88c-127 0 -180 102 -180 207c0 125 76 232 226 237v-116c-60 -8 -89 -50 -89 -118c0 -46 14 -96 60 -96c29 0 45 22 45 56v115h134v-115c0 -34 16 -56 45 -56c46 0 60 50 60 96c0 68 -29 110 -89 118v116c150 -5 226 -112 226 -237
c0 -105 -53 -207 -180 -207c-58 0 -105 25 -129 88zM295 -52h113v-24c0 -11 8 -28 36 -28h19v-104c-11 -2 -42 -5 -57 -5c-88 0 -111 50 -111 123v38zM364 579c-11 0 -14 0 -17 2c-1 0 -2 -3 -2 -6c0 -18 9 -33 48 -43l-15 -38c-66 16 -113 51 -113 111c0 52 33 84 85 84
c42 0 63 -28 63 -58s-21 -52 -49 -52zM374 815c13 0 26 4 43 28l54 -40c-21 -56 -61 -75 -91 -75c-24 0 -41 4 -58 10c-11 5 -29 12 -39 12c-7 0 -24 -2 -45 -30l-57 48c28 49 60 70 100 70c20 0 34 -6 50 -13c18 -8 38 -10 43 -10z" />
    <glyph glyph-name="uni1FF2" unicode="&#x1ff2;" horiz-adv-x="694" 
d="M347 79c-24 -63 -71 -88 -129 -88c-127 0 -180 102 -180 207c0 125 76 232 226 237v-116c-60 -8 -89 -50 -89 -118c0 -46 14 -96 60 -96c29 0 45 22 45 56v115h134v-115c0 -34 16 -56 45 -56c46 0 60 50 60 96c0 68 -29 110 -89 118v116c150 -5 226 -112 226 -237
c0 -105 -53 -207 -180 -207c-58 0 -105 25 -129 88zM295 -52h113v-24c0 -11 8 -28 36 -28h19v-104c-11 -2 -42 -5 -57 -5c-88 0 -111 50 -111 123v38zM350 683l49 -180h-102l-101 180h154z" />
    <glyph glyph-name="uni1FF4" unicode="&#x1ff4;" horiz-adv-x="694" 
d="M347 79c-24 -63 -71 -88 -129 -88c-127 0 -180 102 -180 207c0 125 76 232 226 237v-116c-60 -8 -89 -50 -89 -118c0 -46 14 -96 60 -96c29 0 45 22 45 56v115h134v-115c0 -34 16 -56 45 -56c46 0 60 50 60 96c0 68 -29 110 -89 118v116c150 -5 226 -112 226 -237
c0 -105 -53 -207 -180 -207c-58 0 -105 25 -129 88zM295 -52h113v-24c0 -11 8 -28 36 -28h19v-104c-11 -2 -42 -5 -57 -5c-88 0 -111 50 -111 123v38zM287 502l49 180h154l-101 -180h-102z" />
    <glyph glyph-name="uni1FF7" unicode="&#x1ff7;" horiz-adv-x="694" 
d="M347 79c-24 -63 -71 -88 -129 -88c-127 0 -180 102 -180 207c0 125 76 232 226 237v-116c-60 -8 -89 -50 -89 -118c0 -46 14 -96 60 -96c29 0 45 22 45 56v115h134v-115c0 -34 16 -56 45 -56c46 0 60 50 60 96c0 68 -29 110 -89 118v116c150 -5 226 -112 226 -237
c0 -105 -53 -207 -180 -207c-58 0 -105 25 -129 88zM295 -52h113v-24c0 -11 8 -28 36 -28h19v-104c-11 -2 -42 -5 -57 -5c-88 0 -111 50 -111 123v38zM387 597c13 0 26 4 43 28l54 -40c-21 -56 -61 -75 -91 -75c-24 0 -41 4 -58 10c-11 5 -29 12 -39 12c-7 0 -24 -2 -45 -30
l-57 48c28 49 60 70 100 70c20 0 34 -6 50 -13c18 -8 38 -10 43 -10z" />
    <glyph glyph-name="uni1FF6" unicode="&#x1ff6;" horiz-adv-x="694" 
d="M347 79c-24 -63 -71 -88 -129 -88c-127 0 -180 102 -180 207c0 125 76 232 226 237v-116c-60 -8 -89 -50 -89 -118c0 -46 14 -96 60 -96c29 0 45 22 45 56v115h134v-115c0 -34 16 -56 45 -56c46 0 60 50 60 96c0 68 -29 110 -89 118v116c150 -5 226 -112 226 -237
c0 -105 -53 -207 -180 -207c-58 0 -105 25 -129 88zM387 597c13 0 26 4 43 28l54 -40c-21 -56 -61 -75 -91 -75c-24 0 -41 4 -58 10c-11 5 -29 12 -39 12c-7 0 -24 -2 -45 -30l-57 48c28 49 60 70 100 70c20 0 34 -6 50 -13c18 -8 38 -10 43 -10z" />
    <glyph glyph-name="uni1FBB" unicode="&#x1fbb;" horiz-adv-x="664" 
d="M21 0l299 686h12l311 -686h-147l-32 77h-276l-32 -77h-135zM235 194h179l-49 118c-20 48 -41 122 -41 122s-20 -74 -40 -122zM-23 500l49 180h154l-101 -180h-102z" />
    <glyph glyph-name="uni1F09" unicode="&#x1f09;" horiz-adv-x="664" 
d="M21 0l299 686h12l311 -686h-147l-32 77h-276l-32 -77h-135zM235 194h179l-49 118c-20 48 -41 122 -41 122s-20 -74 -40 -122zM134 569c-11 0 -14 0 -17 2c-1 0 -2 -3 -2 -6c0 -18 9 -33 48 -43l-15 -38c-66 16 -113 51 -113 111c0 52 33 84 85 84c42 0 63 -28 63 -58
s-21 -52 -49 -52z" />
    <glyph glyph-name="uni1F0D" unicode="&#x1f0d;" horiz-adv-x="664" 
d="M21 0l299 686h12l311 -686h-147l-32 77h-276l-32 -77h-135zM235 194h179l-49 118c-20 48 -41 122 -41 122s-20 -74 -40 -122zM-90 570c-11 0 -14 0 -17 2c-1 0 -2 -3 -2 -6c0 -18 9 -33 48 -43l-15 -38c-66 16 -113 51 -113 111c0 52 33 84 85 84c42 0 63 -28 63 -58
s-21 -52 -49 -52zM28 674l-49 -180h102l101 180h-154z" />
    <glyph glyph-name="uni1F0B" unicode="&#x1f0b;" horiz-adv-x="664" 
d="M21 0l299 686h12l311 -686h-147l-32 77h-276l-32 -77h-135zM235 194h179l-49 118c-20 48 -41 122 -41 122s-20 -74 -40 -122zM-81 570c-11 0 -14 0 -17 2c-1 0 -2 -3 -2 -6c0 -18 9 -33 48 -43l-15 -38c-66 16 -113 51 -113 111c0 52 33 84 85 84c42 0 63 -28 63 -58
s-21 -52 -49 -52zM185 494l-49 180h-154l101 -180h102z" />
    <glyph glyph-name="uni1F0F" unicode="&#x1f0f;" horiz-adv-x="664" 
d="M21 0l299 686h12l311 -686h-147l-32 77h-276l-32 -77h-135zM235 194h179l-49 118c-20 48 -41 122 -41 122s-20 -74 -40 -122zM75 419c-11 0 -14 0 -17 2c-1 0 -2 -3 -2 -6c0 -18 9 -33 48 -43l-15 -38c-66 16 -113 51 -113 111c0 52 33 84 85 84c42 0 63 -28 63 -58
s-21 -52 -49 -52zM85 655c13 0 26 4 43 28l54 -40c-21 -56 -61 -75 -91 -75c-24 0 -41 4 -58 10c-11 5 -29 12 -39 12c-7 0 -24 -2 -45 -30l-57 48c28 49 60 70 100 70c20 0 34 -6 50 -13c18 -8 38 -10 43 -10z" />
    <glyph glyph-name="uni1FB8" unicode="&#x1fb8;" horiz-adv-x="664" 
d="M21 0l299 686h12l311 -686h-147l-32 77h-276l-32 -77h-135zM235 194h179l-49 118c-20 48 -41 122 -41 122s-20 -74 -40 -122zM331 772c-96 0 -154 60 -162 140l103 15c5 -34 22 -57 59 -57s54 23 59 57l103 -15c-8 -80 -66 -140 -162 -140z" />
    <glyph glyph-name="uni1FBA" unicode="&#x1fba;" horiz-adv-x="664" 
d="M21 0l299 686h12l311 -686h-147l-32 77h-276l-32 -77h-135zM235 194h179l-49 118c-20 48 -41 122 -41 122s-20 -74 -40 -122zM134 680l49 -180h-102l-101 180h154z" />
    <glyph glyph-name="uni1F89" unicode="&#x1f89;" horiz-adv-x="664" 
d="M21 0l299 686h12l311 -686h-147l-32 77h-276l-32 -77h-135zM235 194h179l-49 118c-20 48 -41 122 -41 122s-20 -74 -40 -122zM265 -52h113v-24c0 -11 8 -28 36 -28h19v-104c-11 -2 -42 -5 -57 -5c-88 0 -111 50 -111 123v38zM111 569c-11 0 -14 0 -17 2c-1 0 -2 -3 -2 -6
c0 -18 9 -33 48 -43l-15 -38c-66 16 -113 51 -113 111c0 52 33 84 85 84c42 0 63 -28 63 -58s-21 -52 -49 -52z" />
    <glyph glyph-name="uni1F8D" unicode="&#x1f8d;" horiz-adv-x="664" 
d="M21 0l299 686h12l311 -686h-147l-32 77h-276l-32 -77h-135zM235 194h179l-49 118c-20 48 -41 122 -41 122s-20 -74 -40 -122zM265 -52h113v-24c0 -11 8 -28 36 -28h19v-104c-11 -2 -42 -5 -57 -5c-88 0 -111 50 -111 123v38zM-158 570c-28 0 -49 22 -49 52s21 58 63 58
c52 0 85 -32 85 -84c0 -60 -47 -95 -113 -111l-15 38c39 10 48 25 48 43c0 3 -1 6 -2 6c-3 -2 -6 -2 -17 -2zM4 674l-49 -180h102l101 180h-154z" />
    <glyph glyph-name="uni1F8B" unicode="&#x1f8b;" horiz-adv-x="664" 
d="M21 0l299 686h12l311 -686h-147l-32 77h-276l-32 -77h-135zM235 194h179l-49 118c-20 48 -41 122 -41 122s-20 -74 -40 -122zM265 -52h113v-24c0 -11 8 -28 36 -28h19v-104c-11 -2 -42 -5 -57 -5c-88 0 -111 50 -111 123v38zM-104 570c-11 0 -14 0 -17 2
c-1 0 -2 -3 -2 -6c0 -18 9 -33 48 -43l-15 -38c-66 16 -113 51 -113 111c0 52 33 84 85 84c42 0 63 -28 63 -58s-21 -52 -49 -52zM162 494l-49 180h-154l101 -180h102z" />
    <glyph glyph-name="uni1F8F" unicode="&#x1f8f;" horiz-adv-x="664" 
d="M21 0l299 686h12l311 -686h-147l-32 77h-276l-32 -77h-135zM235 194h179l-49 118c-20 48 -41 122 -41 122s-20 -74 -40 -122zM265 -52h113v-24c0 -11 8 -28 36 -28h19v-104c-11 -2 -42 -5 -57 -5c-88 0 -111 50 -111 123v38zM52 419c-11 0 -14 0 -17 2c-1 0 -2 -3 -2 -6
c0 -18 9 -33 48 -43l-15 -38c-66 16 -113 51 -113 111c0 52 33 84 85 84c42 0 63 -28 63 -58s-21 -52 -49 -52zM62 655c13 0 26 4 43 28l54 -40c-21 -56 -61 -75 -91 -75c-24 0 -41 4 -58 10c-11 5 -29 12 -39 12c-7 0 -24 -2 -45 -30l-57 48c28 49 60 70 100 70
c20 0 34 -6 50 -13c18 -8 38 -10 43 -10z" />
    <glyph glyph-name="uni1F88" unicode="&#x1f88;" horiz-adv-x="664" 
d="M21 0l299 686h12l311 -686h-147l-32 77h-276l-32 -77h-135zM235 194h179l-49 118c-20 48 -41 122 -41 122s-20 -74 -40 -122zM265 -52h113v-24c0 -11 8 -28 36 -28h19v-104c-11 -2 -42 -5 -57 -5c-88 0 -111 50 -111 123v38zM61 569c-28 0 -49 22 -49 52s21 58 63 58
c52 0 85 -32 85 -84c0 -60 -47 -95 -113 -111l-15 38c39 10 48 25 48 43c0 3 -1 6 -2 6c-3 -2 -6 -2 -17 -2z" />
    <glyph glyph-name="uni1F8C" unicode="&#x1f8c;" horiz-adv-x="664" 
d="M21 0l299 686h12l311 -686h-147l-32 77h-276l-32 -77h-135zM235 194h179l-49 118c-20 48 -41 122 -41 122s-20 -74 -40 -122zM265 -52h113v-24c0 -11 8 -28 36 -28h19v-104c-11 -2 -42 -5 -57 -5c-88 0 -111 50 -111 123v38zM-158 570c-28 0 -49 22 -49 52s21 58 63 58
c52 0 85 -32 85 -84c0 -60 -47 -95 -113 -111l-15 38c39 10 48 25 48 43c0 3 -1 6 -2 6c-3 -2 -6 -2 -17 -2zM4 674l-49 -180h102l101 180h-154z" />
    <glyph glyph-name="uni1F8A" unicode="&#x1f8a;" horiz-adv-x="664" 
d="M21 0l299 686h12l311 -686h-147l-32 77h-276l-32 -77h-135zM235 194h179l-49 118c-20 48 -41 122 -41 122s-20 -74 -40 -122zM265 -52h113v-24c0 -11 8 -28 36 -28h19v-104c-11 -2 -42 -5 -57 -5c-88 0 -111 50 -111 123v38zM-156 570c-28 0 -49 22 -49 52s21 58 63 58
c52 0 85 -32 85 -84c0 -60 -47 -95 -113 -111l-15 38c39 10 48 25 48 43c0 3 -1 6 -2 6c-3 -2 -6 -2 -17 -2zM160 494l-49 180h-154l101 -180h102z" />
    <glyph glyph-name="uni1F8E" unicode="&#x1f8e;" horiz-adv-x="664" 
d="M21 0l299 686h12l311 -686h-147l-32 77h-276l-32 -77h-135zM235 194h179l-49 118c-20 48 -41 122 -41 122s-20 -74 -40 -122zM265 -52h113v-24c0 -11 8 -28 36 -28h19v-104c-11 -2 -42 -5 -57 -5c-88 0 -111 50 -111 123v38zM13 419c-28 0 -49 22 -49 52s21 58 63 58
c52 0 85 -32 85 -84c0 -60 -47 -95 -113 -111l-15 38c39 10 48 25 48 43c0 3 -1 6 -2 6c-3 -2 -6 -2 -17 -2zM64 659c13 0 26 4 43 28l54 -40c-21 -56 -61 -75 -91 -75c-24 0 -41 4 -58 10c-11 5 -29 12 -39 12c-7 0 -24 -2 -45 -30l-57 48c28 49 60 70 100 70
c20 0 34 -6 50 -13c18 -8 38 -10 43 -10z" />
    <glyph glyph-name="uni1F08" unicode="&#x1f08;" horiz-adv-x="664" 
d="M21 0l299 686h12l311 -686h-147l-32 77h-276l-32 -77h-135zM235 194h179l-49 118c-20 48 -41 122 -41 122s-20 -74 -40 -122zM84 569c-28 0 -49 22 -49 52s21 58 63 58c52 0 85 -32 85 -84c0 -60 -47 -95 -113 -111l-15 38c39 10 48 25 48 43c0 3 -1 6 -2 6
c-3 -2 -6 -2 -17 -2z" />
    <glyph glyph-name="uni1F0C" unicode="&#x1f0c;" horiz-adv-x="664" 
d="M21 0l299 686h12l311 -686h-147l-32 77h-276l-32 -77h-135zM235 194h179l-49 118c-20 48 -41 122 -41 122s-20 -74 -40 -122zM-135 570c-28 0 -49 22 -49 52s21 58 63 58c52 0 85 -32 85 -84c0 -60 -47 -95 -113 -111l-15 38c39 10 48 25 48 43c0 3 -1 6 -2 6
c-3 -2 -6 -2 -17 -2zM27 674l-49 -180h102l101 180h-154z" />
    <glyph glyph-name="uni1F0A" unicode="&#x1f0a;" horiz-adv-x="664" 
d="M21 0l299 686h12l311 -686h-147l-32 77h-276l-32 -77h-135zM235 194h179l-49 118c-20 48 -41 122 -41 122s-20 -74 -40 -122zM-133 570c-28 0 -49 22 -49 52s21 58 63 58c52 0 85 -32 85 -84c0 -60 -47 -95 -113 -111l-15 38c39 10 48 25 48 43c0 3 -1 6 -2 6
c-3 -2 -6 -2 -17 -2zM183 494l-49 180h-154l101 -180h102z" />
    <glyph glyph-name="uni1F0E" unicode="&#x1f0e;" horiz-adv-x="664" 
d="M21 0l299 686h12l311 -686h-147l-32 77h-276l-32 -77h-135zM235 194h179l-49 118c-20 48 -41 122 -41 122s-20 -74 -40 -122zM36 419c-28 0 -49 22 -49 52s21 58 63 58c52 0 85 -32 85 -84c0 -60 -47 -95 -113 -111l-15 38c39 10 48 25 48 43c0 3 -1 6 -2 6
c-3 -2 -6 -2 -17 -2zM87 659c13 0 26 4 43 28l54 -40c-21 -56 -61 -75 -91 -75c-24 0 -41 4 -58 10c-11 5 -29 12 -39 12c-7 0 -24 -2 -45 -30l-57 48c28 49 60 70 100 70c20 0 34 -6 50 -13c18 -8 38 -10 43 -10z" />
    <glyph glyph-name="uni1FB9" unicode="&#x1fb9;" horiz-adv-x="664" 
d="M21 0l299 686h12l311 -686h-147l-32 77h-276l-32 -77h-135zM235 194h179l-49 118c-20 48 -41 122 -41 122s-20 -74 -40 -122zM209 763v99h244v-99h-244z" />
    <glyph glyph-name="uni1FC9" unicode="&#x1fc9;" horiz-adv-x="594" 
d="M71 0v680h450v-123h-310v-216h273v-120h-273v-98h324v-123h-464zM-191 500l49 180h154l-101 -180h-102z" />
    <glyph glyph-name="uni1F19" unicode="&#x1f19;" horiz-adv-x="594" 
d="M71 0v680h450v-123h-310v-216h273v-120h-273v-98h324v-123h-464zM-34 569c-11 0 -14 0 -17 2c-1 0 -2 -3 -2 -6c0 -18 9 -33 48 -43l-15 -38c-66 16 -113 51 -113 111c0 52 33 84 85 84c42 0 63 -28 63 -58s-21 -52 -49 -52z" />
    <glyph glyph-name="uni1F1D" unicode="&#x1f1d;" horiz-adv-x="594" 
d="M71 0v680h450v-123h-310v-216h273v-120h-273v-98h324v-123h-464zM-258 570c-11 0 -14 0 -17 2c-1 0 -2 -3 -2 -6c0 -18 9 -33 48 -43l-15 -38c-66 16 -113 51 -113 111c0 52 33 84 85 84c42 0 63 -28 63 -58s-21 -52 -49 -52zM-140 674l-49 -180h102l101 180h-154z" />
    <glyph glyph-name="uni1F1B" unicode="&#x1f1b;" horiz-adv-x="594" 
d="M71 0v680h450v-123h-310v-216h273v-120h-273v-98h324v-123h-464zM-249 570c-11 0 -14 0 -17 2c-1 0 -2 -3 -2 -6c0 -18 9 -33 48 -43l-15 -38c-66 16 -113 51 -113 111c0 52 33 84 85 84c42 0 63 -28 63 -58s-21 -52 -49 -52zM17 494l-49 180h-154l101 -180h102z" />
    <glyph glyph-name="uni1FC8" unicode="&#x1fc8;" horiz-adv-x="594" 
d="M71 0v680h450v-123h-310v-216h273v-120h-273v-98h324v-123h-464zM-34 680l49 -180h-102l-101 180h154z" />
    <glyph glyph-name="uni1F18" unicode="&#x1f18;" horiz-adv-x="594" 
d="M71 0v680h450v-123h-310v-216h273v-120h-273v-98h324v-123h-464zM-84 569c-28 0 -49 22 -49 52s21 58 63 58c52 0 85 -32 85 -84c0 -60 -47 -95 -113 -111l-15 38c39 10 48 25 48 43c0 3 -1 6 -2 6c-3 -2 -6 -2 -17 -2z" />
    <glyph glyph-name="uni1F1C" unicode="&#x1f1c;" horiz-adv-x="594" 
d="M71 0v680h450v-123h-310v-216h273v-120h-273v-98h324v-123h-464zM-303 570c-28 0 -49 22 -49 52s21 58 63 58c52 0 85 -32 85 -84c0 -60 -47 -95 -113 -111l-15 38c39 10 48 25 48 43c0 3 -1 6 -2 6c-3 -2 -6 -2 -17 -2zM-141 674l-49 -180h102l101 180h-154z" />
    <glyph glyph-name="uni1F1A" unicode="&#x1f1a;" horiz-adv-x="594" 
d="M71 0v680h450v-123h-310v-216h273v-120h-273v-98h324v-123h-464zM-301 570c-28 0 -49 22 -49 52s21 58 63 58c52 0 85 -32 85 -84c0 -60 -47 -95 -113 -111l-15 38c39 10 48 25 48 43c0 3 -1 6 -2 6c-3 -2 -6 -2 -17 -2zM15 494l-49 180h-154l101 -180h102z" />
    <glyph glyph-name="uni1FCB" unicode="&#x1fcb;" horiz-adv-x="713" 
d="M71 0v680h140v-348h291v348h140v-680h-140v207h-291v-207h-140zM-191 500l49 180h154l-101 -180h-102z" />
    <glyph glyph-name="uni1F29" unicode="&#x1f29;" horiz-adv-x="713" 
d="M71 0v680h140v-348h291v348h140v-680h-140v207h-291v-207h-140zM-34 569c-11 0 -14 0 -17 2c-1 0 -2 -3 -2 -6c0 -18 9 -33 48 -43l-15 -38c-66 16 -113 51 -113 111c0 52 33 84 85 84c42 0 63 -28 63 -58s-21 -52 -49 -52z" />
    <glyph glyph-name="uni1F2D" unicode="&#x1f2d;" horiz-adv-x="713" 
d="M71 0v680h140v-348h291v348h140v-680h-140v207h-291v-207h-140zM-258 570c-11 0 -14 0 -17 2c-1 0 -2 -3 -2 -6c0 -18 9 -33 48 -43l-15 -38c-66 16 -113 51 -113 111c0 52 33 84 85 84c42 0 63 -28 63 -58s-21 -52 -49 -52zM-140 674l-49 -180h102l101 180h-154z" />
    <glyph glyph-name="uni1F2B" unicode="&#x1f2b;" horiz-adv-x="713" 
d="M71 0v680h140v-348h291v348h140v-680h-140v207h-291v-207h-140zM-249 570c-11 0 -14 0 -17 2c-1 0 -2 -3 -2 -6c0 -18 9 -33 48 -43l-15 -38c-66 16 -113 51 -113 111c0 52 33 84 85 84c42 0 63 -28 63 -58s-21 -52 -49 -52zM17 494l-49 180h-154l101 -180h102z" />
    <glyph glyph-name="uni1F2F" unicode="&#x1f2f;" horiz-adv-x="713" 
d="M71 0v680h140v-348h291v348h140v-680h-140v207h-291v-207h-140zM-93 419c-11 0 -14 0 -17 2c-1 0 -2 -3 -2 -6c0 -18 9 -33 48 -43l-15 -38c-66 16 -113 51 -113 111c0 52 33 84 85 84c42 0 63 -28 63 -58s-21 -52 -49 -52zM-83 655c13 0 26 4 43 28l54 -40
c-21 -56 -61 -75 -91 -75c-24 0 -41 4 -58 10c-11 5 -29 12 -39 12c-7 0 -24 -2 -45 -30l-57 48c28 49 60 70 100 70c20 0 34 -6 50 -13c18 -8 38 -10 43 -10z" />
    <glyph glyph-name="uni1FCA" unicode="&#x1fca;" horiz-adv-x="713" 
d="M71 0v680h140v-348h291v348h140v-680h-140v207h-291v-207h-140zM-34 680l49 -180h-102l-101 180h154z" />
    <glyph glyph-name="uni1F99" unicode="&#x1f99;" horiz-adv-x="713" 
d="M71 0v680h140v-348h291v348h140v-680h-140v207h-291v-207h-140zM288 -52h113v-24c0 -11 8 -28 36 -28h19v-104c-11 -2 -42 -5 -57 -5c-88 0 -111 50 -111 123v38zM-34 569c-11 0 -14 0 -17 2c-1 0 -2 -3 -2 -6c0 -18 9 -33 48 -43l-15 -38c-66 16 -113 51 -113 111
c0 52 33 84 85 84c42 0 63 -28 63 -58s-21 -52 -49 -52z" />
    <glyph glyph-name="uni1F9D" unicode="&#x1f9d;" horiz-adv-x="713" 
d="M71 0v680h140v-348h291v348h140v-680h-140v207h-291v-207h-140zM288 -52h113v-24c0 -11 8 -28 36 -28h19v-104c-11 -2 -42 -5 -57 -5c-88 0 -111 50 -111 123v38zM-303 570c-28 0 -49 22 -49 52s21 58 63 58c52 0 85 -32 85 -84c0 -60 -47 -95 -113 -111l-15 38
c39 10 48 25 48 43c0 3 -1 6 -2 6c-3 -2 -6 -2 -17 -2zM-141 674l-49 -180h102l101 180h-154z" />
    <glyph glyph-name="uni1F9B" unicode="&#x1f9b;" horiz-adv-x="713" 
d="M71 0v680h140v-348h291v348h140v-680h-140v207h-291v-207h-140zM288 -52h113v-24c0 -11 8 -28 36 -28h19v-104c-11 -2 -42 -5 -57 -5c-88 0 -111 50 -111 123v38zM-249 570c-11 0 -14 0 -17 2c-1 0 -2 -3 -2 -6c0 -18 9 -33 48 -43l-15 -38c-66 16 -113 51 -113 111
c0 52 33 84 85 84c42 0 63 -28 63 -58s-21 -52 -49 -52zM17 494l-49 180h-154l101 -180h102z" />
    <glyph glyph-name="uni1F9F" unicode="&#x1f9f;" horiz-adv-x="713" 
d="M71 0v680h140v-348h291v348h140v-680h-140v207h-291v-207h-140zM288 -52h113v-24c0 -11 8 -28 36 -28h19v-104c-11 -2 -42 -5 -57 -5c-88 0 -111 50 -111 123v38zM-93 419c-11 0 -14 0 -17 2c-1 0 -2 -3 -2 -6c0 -18 9 -33 48 -43l-15 -38c-66 16 -113 51 -113 111
c0 52 33 84 85 84c42 0 63 -28 63 -58s-21 -52 -49 -52zM-83 655c13 0 26 4 43 28l54 -40c-21 -56 -61 -75 -91 -75c-24 0 -41 4 -58 10c-11 5 -29 12 -39 12c-7 0 -24 -2 -45 -30l-57 48c28 49 60 70 100 70c20 0 34 -6 50 -13c18 -8 38 -10 43 -10z" />
    <glyph glyph-name="uni1F98" unicode="&#x1f98;" horiz-adv-x="713" 
d="M71 0v680h140v-348h291v348h140v-680h-140v207h-291v-207h-140zM288 -52h113v-24c0 -11 8 -28 36 -28h19v-104c-11 -2 -42 -5 -57 -5c-88 0 -111 50 -111 123v38zM-84 569c-28 0 -49 22 -49 52s21 58 63 58c52 0 85 -32 85 -84c0 -60 -47 -95 -113 -111l-15 38
c39 10 48 25 48 43c0 3 -1 6 -2 6c-3 -2 -6 -2 -17 -2z" />
    <glyph glyph-name="uni1F9C" unicode="&#x1f9c;" horiz-adv-x="713" 
d="M71 0v680h140v-348h291v348h140v-680h-140v207h-291v-207h-140zM288 -52h113v-24c0 -11 8 -28 36 -28h19v-104c-11 -2 -42 -5 -57 -5c-88 0 -111 50 -111 123v38zM-303 570c-28 0 -49 22 -49 52s21 58 63 58c52 0 85 -32 85 -84c0 -60 -47 -95 -113 -111l-15 38
c39 10 48 25 48 43c0 3 -1 6 -2 6c-3 -2 -6 -2 -17 -2zM-141 674l-49 -180h102l101 180h-154z" />
    <glyph glyph-name="uni1F9A" unicode="&#x1f9a;" horiz-adv-x="713" 
d="M71 0v680h140v-348h291v348h140v-680h-140v207h-291v-207h-140zM288 -52h113v-24c0 -11 8 -28 36 -28h19v-104c-11 -2 -42 -5 -57 -5c-88 0 -111 50 -111 123v38zM-301 570c-28 0 -49 22 -49 52s21 58 63 58c52 0 85 -32 85 -84c0 -60 -47 -95 -113 -111l-15 38
c39 10 48 25 48 43c0 3 -1 6 -2 6c-3 -2 -6 -2 -17 -2zM15 494l-49 180h-154l101 -180h102z" />
    <glyph glyph-name="uni1F9E" unicode="&#x1f9e;" horiz-adv-x="713" 
d="M71 0v680h140v-348h291v348h140v-680h-140v207h-291v-207h-140zM288 -52h113v-24c0 -11 8 -28 36 -28h19v-104c-11 -2 -42 -5 -57 -5c-88 0 -111 50 -111 123v38zM-132 419c-28 0 -49 22 -49 52s21 58 63 58c52 0 85 -32 85 -84c0 -60 -47 -95 -113 -111l-15 38
c39 10 48 25 48 43c0 3 -1 6 -2 6c-3 -2 -6 -2 -17 -2zM-81 659c13 0 26 4 43 28l54 -40c-21 -56 -61 -75 -91 -75c-24 0 -41 4 -58 10c-11 5 -29 12 -39 12c-7 0 -24 -2 -45 -30l-57 48c28 49 60 70 100 70c20 0 34 -6 50 -13c18 -8 38 -10 43 -10z" />
    <glyph glyph-name="uni1F28" unicode="&#x1f28;" horiz-adv-x="713" 
d="M71 0v680h140v-348h291v348h140v-680h-140v207h-291v-207h-140zM-84 569c-28 0 -49 22 -49 52s21 58 63 58c52 0 85 -32 85 -84c0 -60 -47 -95 -113 -111l-15 38c39 10 48 25 48 43c0 3 -1 6 -2 6c-3 -2 -6 -2 -17 -2z" />
    <glyph glyph-name="uni1F2C" unicode="&#x1f2c;" horiz-adv-x="713" 
d="M71 0v680h140v-348h291v348h140v-680h-140v207h-291v-207h-140zM-303 570c-28 0 -49 22 -49 52s21 58 63 58c52 0 85 -32 85 -84c0 -60 -47 -95 -113 -111l-15 38c39 10 48 25 48 43c0 3 -1 6 -2 6c-3 -2 -6 -2 -17 -2zM-141 674l-49 -180h102l101 180h-154z" />
    <glyph glyph-name="uni1F2A" unicode="&#x1f2a;" horiz-adv-x="713" 
d="M71 0v680h140v-348h291v348h140v-680h-140v207h-291v-207h-140zM-301 570c-28 0 -49 22 -49 52s21 58 63 58c52 0 85 -32 85 -84c0 -60 -47 -95 -113 -111l-15 38c39 10 48 25 48 43c0 3 -1 6 -2 6c-3 -2 -6 -2 -17 -2zM15 494l-49 180h-154l101 -180h102z" />
    <glyph glyph-name="uni1F2E" unicode="&#x1f2e;" horiz-adv-x="713" 
d="M71 0v680h140v-348h291v348h140v-680h-140v207h-291v-207h-140zM-132 419c-28 0 -49 22 -49 52s21 58 63 58c52 0 85 -32 85 -84c0 -60 -47 -95 -113 -111l-15 38c39 10 48 25 48 43c0 3 -1 6 -2 6c-3 -2 -6 -2 -17 -2zM-81 659c13 0 26 4 43 28l54 -40
c-21 -56 -61 -75 -91 -75c-24 0 -41 4 -58 10c-11 5 -29 12 -39 12c-7 0 -24 -2 -45 -30l-57 48c28 49 60 70 100 70c20 0 34 -6 50 -13c18 -8 38 -10 43 -10z" />
    <glyph glyph-name="uni1FDB" unicode="&#x1fdb;" horiz-adv-x="287" 
d="M74 0v680h140v-680h-140zM-191 500l49 180h154l-101 -180h-102z" />
    <glyph glyph-name="uni1F39" unicode="&#x1f39;" horiz-adv-x="287" 
d="M74 0v680h140v-680h-140zM-34 569c-11 0 -14 0 -17 2c-1 0 -2 -3 -2 -6c0 -18 9 -33 48 -43l-15 -38c-66 16 -113 51 -113 111c0 52 33 84 85 84c42 0 63 -28 63 -58s-21 -52 -49 -52z" />
    <glyph glyph-name="uni1F3D" unicode="&#x1f3d;" horiz-adv-x="287" 
d="M74 0v680h140v-680h-140zM-258 570c-11 0 -14 0 -17 2c-1 0 -2 -3 -2 -6c0 -18 9 -33 48 -43l-15 -38c-66 16 -113 51 -113 111c0 52 33 84 85 84c42 0 63 -28 63 -58s-21 -52 -49 -52zM-140 674l-49 -180h102l101 180h-154z" />
    <glyph glyph-name="uni1F3B" unicode="&#x1f3b;" horiz-adv-x="287" 
d="M74 0v680h140v-680h-140zM-249 570c-11 0 -14 0 -17 2c-1 0 -2 -3 -2 -6c0 -18 9 -33 48 -43l-15 -38c-66 16 -113 51 -113 111c0 52 33 84 85 84c42 0 63 -28 63 -58s-21 -52 -49 -52zM17 494l-49 180h-154l101 -180h102z" />
    <glyph glyph-name="uni1F3F" unicode="&#x1f3f;" horiz-adv-x="287" 
d="M74 0v680h140v-680h-140zM-93 419c-11 0 -14 0 -17 2c-1 0 -2 -3 -2 -6c0 -18 9 -33 48 -43l-15 -38c-66 16 -113 51 -113 111c0 52 33 84 85 84c42 0 63 -28 63 -58s-21 -52 -49 -52zM-83 655c13 0 26 4 43 28l54 -40c-21 -56 -61 -75 -91 -75c-24 0 -41 4 -58 10
c-11 5 -29 12 -39 12c-7 0 -24 -2 -45 -30l-57 48c28 49 60 70 100 70c20 0 34 -6 50 -13c18 -8 38 -10 43 -10z" />
    <glyph glyph-name="uni1FD8" unicode="&#x1fd8;" horiz-adv-x="287" 
d="M74 0v680h140v-680h-140zM143 772c-96 0 -154 60 -162 140l103 15c5 -34 22 -57 59 -57s54 23 59 57l103 -15c-8 -80 -66 -140 -162 -140z" />
    <glyph glyph-name="uni1FDA" unicode="&#x1fda;" horiz-adv-x="287" 
d="M74 0v680h140v-680h-140zM-34 680l49 -180h-102l-101 180h154z" />
    <glyph glyph-name="uni1F38" unicode="&#x1f38;" horiz-adv-x="287" 
d="M74 0v680h140v-680h-140zM-84 569c-28 0 -49 22 -49 52s21 58 63 58c52 0 85 -32 85 -84c0 -60 -47 -95 -113 -111l-15 38c39 10 48 25 48 43c0 3 -1 6 -2 6c-3 -2 -6 -2 -17 -2z" />
    <glyph glyph-name="uni1F3C" unicode="&#x1f3c;" horiz-adv-x="287" 
d="M74 0v680h140v-680h-140zM-303 570c-28 0 -49 22 -49 52s21 58 63 58c52 0 85 -32 85 -84c0 -60 -47 -95 -113 -111l-15 38c39 10 48 25 48 43c0 3 -1 6 -2 6c-3 -2 -6 -2 -17 -2zM-141 674l-49 -180h102l101 180h-154z" />
    <glyph glyph-name="uni1F3A" unicode="&#x1f3a;" horiz-adv-x="287" 
d="M74 0v680h140v-680h-140zM-301 570c-28 0 -49 22 -49 52s21 58 63 58c52 0 85 -32 85 -84c0 -60 -47 -95 -113 -111l-15 38c39 10 48 25 48 43c0 3 -1 6 -2 6c-3 -2 -6 -2 -17 -2zM15 494l-49 180h-154l101 -180h102z" />
    <glyph glyph-name="uni1F3E" unicode="&#x1f3e;" horiz-adv-x="287" 
d="M74 0v680h140v-680h-140zM-132 419c-28 0 -49 22 -49 52s21 58 63 58c52 0 85 -32 85 -84c0 -60 -47 -95 -113 -111l-15 38c39 10 48 25 48 43c0 3 -1 6 -2 6c-3 -2 -6 -2 -17 -2zM-81 659c13 0 26 4 43 28l54 -40c-21 -56 -61 -75 -91 -75c-24 0 -41 4 -58 10
c-11 5 -29 12 -39 12c-7 0 -24 -2 -45 -30l-57 48c28 49 60 70 100 70c20 0 34 -6 50 -13c18 -8 38 -10 43 -10z" />
    <glyph glyph-name="uni1FD9" unicode="&#x1fd9;" horiz-adv-x="287" 
d="M74 0v680h140v-680h-140zM21 763v99h244v-99h-244z" />
    <glyph glyph-name="uni1FF9" unicode="&#x1ff9;" 
d="M400 -9c-196 0 -352 148 -352 349s156 349 352 349s352 -148 352 -349s-156 -349 -352 -349zM400 116c124 0 208 97 208 224s-84 224 -208 224s-208 -97 -208 -224s84 -224 208 -224zM-161 500l49 180h154l-101 -180h-102z" />
    <glyph glyph-name="uni1F49" unicode="&#x1f49;" 
d="M400 -9c-196 0 -352 148 -352 349s156 349 352 349s352 -148 352 -349s-156 -349 -352 -349zM400 116c124 0 208 97 208 224s-84 224 -208 224s-208 -97 -208 -224s84 -224 208 -224zM-4 569c-11 0 -14 0 -17 2c-1 0 -2 -3 -2 -6c0 -18 9 -33 48 -43l-15 -38
c-66 16 -113 51 -113 111c0 52 33 84 85 84c42 0 63 -28 63 -58s-21 -52 -49 -52z" />
    <glyph glyph-name="uni1F4D" unicode="&#x1f4d;" 
d="M400 -9c-196 0 -352 148 -352 349s156 349 352 349s352 -148 352 -349s-156 -349 -352 -349zM400 116c124 0 208 97 208 224s-84 224 -208 224s-208 -97 -208 -224s84 -224 208 -224zM-228 570c-11 0 -14 0 -17 2c-1 0 -2 -3 -2 -6c0 -18 9 -33 48 -43l-15 -38
c-66 16 -113 51 -113 111c0 52 33 84 85 84c42 0 63 -28 63 -58s-21 -52 -49 -52zM-110 674l-49 -180h102l101 180h-154z" />
    <glyph glyph-name="uni1F4B" unicode="&#x1f4b;" 
d="M400 -9c-196 0 -352 148 -352 349s156 349 352 349s352 -148 352 -349s-156 -349 -352 -349zM400 116c124 0 208 97 208 224s-84 224 -208 224s-208 -97 -208 -224s84 -224 208 -224zM-219 570c-11 0 -14 0 -17 2c-1 0 -2 -3 -2 -6c0 -18 9 -33 48 -43l-15 -38
c-66 16 -113 51 -113 111c0 52 33 84 85 84c42 0 63 -28 63 -58s-21 -52 -49 -52zM47 494l-49 180h-154l101 -180h102z" />
    <glyph glyph-name="uni1FF8" unicode="&#x1ff8;" 
d="M400 -9c-196 0 -352 148 -352 349s156 349 352 349s352 -148 352 -349s-156 -349 -352 -349zM400 116c124 0 208 97 208 224s-84 224 -208 224s-208 -97 -208 -224s84 -224 208 -224zM-4 680l49 -180h-102l-101 180h154z" />
    <glyph glyph-name="uni1F48" unicode="&#x1f48;" 
d="M400 -9c-196 0 -352 148 -352 349s156 349 352 349s352 -148 352 -349s-156 -349 -352 -349zM400 116c124 0 208 97 208 224s-84 224 -208 224s-208 -97 -208 -224s84 -224 208 -224zM-54 569c-28 0 -49 22 -49 52s21 58 63 58c52 0 85 -32 85 -84
c0 -60 -47 -95 -113 -111l-15 38c39 10 48 25 48 43c0 3 -1 6 -2 6c-3 -2 -6 -2 -17 -2z" />
    <glyph glyph-name="uni1F4C" unicode="&#x1f4c;" 
d="M400 -9c-196 0 -352 148 -352 349s156 349 352 349s352 -148 352 -349s-156 -349 -352 -349zM400 116c124 0 208 97 208 224s-84 224 -208 224s-208 -97 -208 -224s84 -224 208 -224zM-273 570c-28 0 -49 22 -49 52s21 58 63 58c52 0 85 -32 85 -84
c0 -60 -47 -95 -113 -111l-15 38c39 10 48 25 48 43c0 3 -1 6 -2 6c-3 -2 -6 -2 -17 -2zM-111 674l-49 -180h102l101 180h-154z" />
    <glyph glyph-name="uni1F4A" unicode="&#x1f4a;" 
d="M400 -9c-196 0 -352 148 -352 349s156 349 352 349s352 -148 352 -349s-156 -349 -352 -349zM400 116c124 0 208 97 208 224s-84 224 -208 224s-208 -97 -208 -224s84 -224 208 -224zM-271 570c-28 0 -49 22 -49 52s21 58 63 58c52 0 85 -32 85 -84
c0 -60 -47 -95 -113 -111l-15 38c39 10 48 25 48 43c0 3 -1 6 -2 6c-3 -2 -6 -2 -17 -2zM45 494l-49 180h-154l101 -180h102z" />
    <glyph glyph-name="uni1FEC" unicode="&#x1fec;" horiz-adv-x="601" 
d="M71 0v680h188c190 0 304 -99 304 -263s-115 -262 -304 -262h-48v-155h-140zM211 278h44c114 0 164 46 164 139c0 94 -52 140 -164 140h-44v-279zM-51 569c-11 0 -14 0 -17 2c-1 0 -2 -3 -2 -6c0 -18 9 -33 48 -43l-15 -38c-66 16 -113 51 -113 111c0 52 33 84 85 84
c42 0 63 -28 63 -58s-21 -52 -49 -52z" />
    <glyph glyph-name="uni1FEB" unicode="&#x1feb;" horiz-adv-x="682" 
d="M279 0v216l-258 464h155l120 -219c26 -48 55 -129 55 -129s27 80 53 129l115 219h143l-242 -454v-226h-141zM-226 500l49 180h154l-101 -180h-102z" />
    <glyph glyph-name="uni1F59" unicode="&#x1f59;" horiz-adv-x="682" 
d="M279 0v216l-258 464h155l120 -219c26 -48 55 -129 55 -129s27 80 53 129l115 219h143l-242 -454v-226h-141zM-69 569c-11 0 -14 0 -17 2c-1 0 -2 -3 -2 -6c0 -18 9 -33 48 -43l-15 -38c-66 16 -113 51 -113 111c0 52 33 84 85 84c42 0 63 -28 63 -58s-21 -52 -49 -52z
" />
    <glyph glyph-name="uni1F5D" unicode="&#x1f5d;" horiz-adv-x="682" 
d="M279 0v216l-258 464h155l120 -219c26 -48 55 -129 55 -129s27 80 53 129l115 219h143l-242 -454v-226h-141zM-293 570c-11 0 -14 0 -17 2c-1 0 -2 -3 -2 -6c0 -18 9 -33 48 -43l-15 -38c-66 16 -113 51 -113 111c0 52 33 84 85 84c42 0 63 -28 63 -58s-21 -52 -49 -52z
M-175 674l-49 -180h102l101 180h-154z" />
    <glyph glyph-name="uni1F5B" unicode="&#x1f5b;" horiz-adv-x="682" 
d="M279 0v216l-258 464h155l120 -219c26 -48 55 -129 55 -129s27 80 53 129l115 219h143l-242 -454v-226h-141zM-284 570c-11 0 -14 0 -17 2c-1 0 -2 -3 -2 -6c0 -18 9 -33 48 -43l-15 -38c-66 16 -113 51 -113 111c0 52 33 84 85 84c42 0 63 -28 63 -58s-21 -52 -49 -52z
M-18 494l-49 180h-154l101 -180h102z" />
    <glyph glyph-name="uni1F5F" unicode="&#x1f5f;" horiz-adv-x="682" 
d="M279 0v216l-258 464h155l120 -219c26 -48 55 -129 55 -129s27 80 53 129l115 219h143l-242 -454v-226h-141zM-128 419c-11 0 -14 0 -17 2c-1 0 -2 -3 -2 -6c0 -18 9 -33 48 -43l-15 -38c-66 16 -113 51 -113 111c0 52 33 84 85 84c42 0 63 -28 63 -58s-21 -52 -49 -52z
M-118 655c13 0 26 4 43 28l54 -40c-21 -56 -61 -75 -91 -75c-24 0 -41 4 -58 10c-11 5 -29 12 -39 12c-7 0 -24 -2 -45 -30l-57 48c28 49 60 70 100 70c20 0 34 -6 50 -13c18 -8 38 -10 43 -10z" />
    <glyph glyph-name="uni1FE8" unicode="&#x1fe8;" horiz-adv-x="682" 
d="M279 0v216l-258 464h155l120 -219c26 -48 55 -129 55 -129s27 80 53 129l115 219h143l-242 -454v-226h-141zM340 720c-96 0 -154 60 -162 140l103 15c5 -34 22 -57 59 -57s54 23 59 57l103 -15c-8 -80 -66 -140 -162 -140z" />
    <glyph glyph-name="uni1FEA" unicode="&#x1fea;" horiz-adv-x="682" 
d="M279 0v216l-258 464h155l120 -219c26 -48 55 -129 55 -129s27 80 53 129l115 219h143l-242 -454v-226h-141zM-69 680l49 -180h-102l-101 180h154z" />
    <glyph glyph-name="uni1FE9" unicode="&#x1fe9;" horiz-adv-x="682" 
d="M279 0v216l-258 464h155l120 -219c26 -48 55 -129 55 -129s27 80 53 129l115 219h143l-242 -454v-226h-141zM218 763v99h244v-99h-244z" />
    <glyph glyph-name="uni1FFB" unicode="&#x1ffb;" 
d="M752 340c0 -93 -37 -168 -103 -217h94v-123h-292v114c97 36 157 116 157 226c0 128 -85 224 -208 224s-208 -96 -208 -224c0 -110 61 -190 157 -226v-114h-292v123h94c-66 49 -103 124 -103 217c0 201 157 349 352 349s352 -148 352 -349zM-176 500l49 180h154l-101 -180
h-102z" />
    <glyph glyph-name="uni1F69" unicode="&#x1f69;" 
d="M752 340c0 -93 -37 -168 -103 -217h94v-123h-292v114c97 36 157 116 157 226c0 128 -85 224 -208 224s-208 -96 -208 -224c0 -110 61 -190 157 -226v-114h-292v123h94c-66 49 -103 124 -103 217c0 201 157 349 352 349s352 -148 352 -349zM-19 569c-11 0 -14 0 -17 2
c-1 0 -2 -3 -2 -6c0 -18 9 -33 48 -43l-15 -38c-66 16 -113 51 -113 111c0 52 33 84 85 84c42 0 63 -28 63 -58s-21 -52 -49 -52z" />
    <glyph glyph-name="uni1F6D" unicode="&#x1f6d;" 
d="M752 340c0 -93 -37 -168 -103 -217h94v-123h-292v114c97 36 157 116 157 226c0 128 -85 224 -208 224s-208 -96 -208 -224c0 -110 61 -190 157 -226v-114h-292v123h94c-66 49 -103 124 -103 217c0 201 157 349 352 349s352 -148 352 -349zM-243 570c-11 0 -14 0 -17 2
c-1 0 -2 -3 -2 -6c0 -18 9 -33 48 -43l-15 -38c-66 16 -113 51 -113 111c0 52 33 84 85 84c42 0 63 -28 63 -58s-21 -52 -49 -52zM-125 674l-49 -180h102l101 180h-154z" />
    <glyph glyph-name="uni1F6B" unicode="&#x1f6b;" 
d="M752 340c0 -93 -37 -168 -103 -217h94v-123h-292v114c97 36 157 116 157 226c0 128 -85 224 -208 224s-208 -96 -208 -224c0 -110 61 -190 157 -226v-114h-292v123h94c-66 49 -103 124 -103 217c0 201 157 349 352 349s352 -148 352 -349zM-234 570c-11 0 -14 0 -17 2
c-1 0 -2 -3 -2 -6c0 -18 9 -33 48 -43l-15 -38c-66 16 -113 51 -113 111c0 52 33 84 85 84c42 0 63 -28 63 -58s-21 -52 -49 -52zM32 494l-49 180h-154l101 -180h102z" />
    <glyph glyph-name="uni1F6F" unicode="&#x1f6f;" 
d="M752 340c0 -93 -37 -168 -103 -217h94v-123h-292v114c97 36 157 116 157 226c0 128 -85 224 -208 224s-208 -96 -208 -224c0 -110 61 -190 157 -226v-114h-292v123h94c-66 49 -103 124 -103 217c0 201 157 349 352 349s352 -148 352 -349zM-78 419c-11 0 -14 0 -17 2
c-1 0 -2 -3 -2 -6c0 -18 9 -33 48 -43l-15 -38c-66 16 -113 51 -113 111c0 52 33 84 85 84c42 0 63 -28 63 -58s-21 -52 -49 -52zM-68 655c13 0 26 4 43 28l54 -40c-21 -56 -61 -75 -91 -75c-24 0 -41 4 -58 10c-11 5 -29 12 -39 12c-7 0 -24 -2 -45 -30l-57 48
c28 49 60 70 100 70c20 0 34 -6 50 -13c18 -8 38 -10 43 -10z" />
    <glyph glyph-name="uni1FFA" unicode="&#x1ffa;" 
d="M752 340c0 -93 -37 -168 -103 -217h94v-123h-292v114c97 36 157 116 157 226c0 128 -85 224 -208 224s-208 -96 -208 -224c0 -110 61 -190 157 -226v-114h-292v123h94c-66 49 -103 124 -103 217c0 201 157 349 352 349s352 -148 352 -349zM-19 680l49 -180h-102l-101 180
h154z" />
    <glyph glyph-name="uni1FA9" unicode="&#x1fa9;" 
d="M752 340c0 -93 -37 -168 -103 -217h94v-123h-292v114c97 36 157 116 157 226c0 128 -85 224 -208 224s-208 -96 -208 -224c0 -110 61 -190 157 -226v-114h-292v123h94c-66 49 -103 124 -103 217c0 201 157 349 352 349s352 -148 352 -349zM345 -52h113v-24
c0 -11 8 -28 36 -28h19v-104c-11 -2 -42 -5 -57 -5c-88 0 -111 50 -111 123v38zM-19 569c-11 0 -14 0 -17 2c-1 0 -2 -3 -2 -6c0 -18 9 -33 48 -43l-15 -38c-66 16 -113 51 -113 111c0 52 33 84 85 84c42 0 63 -28 63 -58s-21 -52 -49 -52z" />
    <glyph glyph-name="uni1FAD" unicode="&#x1fad;" 
d="M752 340c0 -93 -37 -168 -103 -217h94v-123h-292v114c97 36 157 116 157 226c0 128 -85 224 -208 224s-208 -96 -208 -224c0 -110 61 -190 157 -226v-114h-292v123h94c-66 49 -103 124 -103 217c0 201 157 349 352 349s352 -148 352 -349zM345 -52h113v-24
c0 -11 8 -28 36 -28h19v-104c-11 -2 -42 -5 -57 -5c-88 0 -111 50 -111 123v38zM-288 570c-28 0 -49 22 -49 52s21 58 63 58c52 0 85 -32 85 -84c0 -60 -47 -95 -113 -111l-15 38c39 10 48 25 48 43c0 3 -1 6 -2 6c-3 -2 -6 -2 -17 -2zM-126 674l-49 -180h102l101 180h-154z
" />
    <glyph glyph-name="uni1FAB" unicode="&#x1fab;" 
d="M752 340c0 -93 -37 -168 -103 -217h94v-123h-292v114c97 36 157 116 157 226c0 128 -85 224 -208 224s-208 -96 -208 -224c0 -110 61 -190 157 -226v-114h-292v123h94c-66 49 -103 124 -103 217c0 201 157 349 352 349s352 -148 352 -349zM345 -52h113v-24
c0 -11 8 -28 36 -28h19v-104c-11 -2 -42 -5 -57 -5c-88 0 -111 50 -111 123v38zM-234 570c-11 0 -14 0 -17 2c-1 0 -2 -3 -2 -6c0 -18 9 -33 48 -43l-15 -38c-66 16 -113 51 -113 111c0 52 33 84 85 84c42 0 63 -28 63 -58s-21 -52 -49 -52zM32 494l-49 180h-154l101 -180
h102z" />
    <glyph glyph-name="uni1FAF" unicode="&#x1faf;" 
d="M752 340c0 -93 -37 -168 -103 -217h94v-123h-292v114c97 36 157 116 157 226c0 128 -85 224 -208 224s-208 -96 -208 -224c0 -110 61 -190 157 -226v-114h-292v123h94c-66 49 -103 124 -103 217c0 201 157 349 352 349s352 -148 352 -349zM345 -52h113v-24
c0 -11 8 -28 36 -28h19v-104c-11 -2 -42 -5 -57 -5c-88 0 -111 50 -111 123v38zM-78 419c-11 0 -14 0 -17 2c-1 0 -2 -3 -2 -6c0 -18 9 -33 48 -43l-15 -38c-66 16 -113 51 -113 111c0 52 33 84 85 84c42 0 63 -28 63 -58s-21 -52 -49 -52zM-68 655c13 0 26 4 43 28l54 -40
c-21 -56 -61 -75 -91 -75c-24 0 -41 4 -58 10c-11 5 -29 12 -39 12c-7 0 -24 -2 -45 -30l-57 48c28 49 60 70 100 70c20 0 34 -6 50 -13c18 -8 38 -10 43 -10z" />
    <glyph glyph-name="uni1FA8" unicode="&#x1fa8;" 
d="M752 340c0 -93 -37 -168 -103 -217h94v-123h-292v114c97 36 157 116 157 226c0 128 -85 224 -208 224s-208 -96 -208 -224c0 -110 61 -190 157 -226v-114h-292v123h94c-66 49 -103 124 -103 217c0 201 157 349 352 349s352 -148 352 -349zM345 -52h113v-24
c0 -11 8 -28 36 -28h19v-104c-11 -2 -42 -5 -57 -5c-88 0 -111 50 -111 123v38zM-69 569c-28 0 -49 22 -49 52s21 58 63 58c52 0 85 -32 85 -84c0 -60 -47 -95 -113 -111l-15 38c39 10 48 25 48 43c0 3 -1 6 -2 6c-3 -2 -6 -2 -17 -2z" />
    <glyph glyph-name="uni1FAC" unicode="&#x1fac;" 
d="M752 340c0 -93 -37 -168 -103 -217h94v-123h-292v114c97 36 157 116 157 226c0 128 -85 224 -208 224s-208 -96 -208 -224c0 -110 61 -190 157 -226v-114h-292v123h94c-66 49 -103 124 -103 217c0 201 157 349 352 349s352 -148 352 -349zM345 -52h113v-24
c0 -11 8 -28 36 -28h19v-104c-11 -2 -42 -5 -57 -5c-88 0 -111 50 -111 123v38zM-288 570c-28 0 -49 22 -49 52s21 58 63 58c52 0 85 -32 85 -84c0 -60 -47 -95 -113 -111l-15 38c39 10 48 25 48 43c0 3 -1 6 -2 6c-3 -2 -6 -2 -17 -2zM-126 674l-49 -180h102l101 180h-154z
" />
    <glyph glyph-name="uni1FAA" unicode="&#x1faa;" 
d="M752 340c0 -93 -37 -168 -103 -217h94v-123h-292v114c97 36 157 116 157 226c0 128 -85 224 -208 224s-208 -96 -208 -224c0 -110 61 -190 157 -226v-114h-292v123h94c-66 49 -103 124 -103 217c0 201 157 349 352 349s352 -148 352 -349zM345 -52h113v-24
c0 -11 8 -28 36 -28h19v-104c-11 -2 -42 -5 -57 -5c-88 0 -111 50 -111 123v38zM-286 570c-28 0 -49 22 -49 52s21 58 63 58c52 0 85 -32 85 -84c0 -60 -47 -95 -113 -111l-15 38c39 10 48 25 48 43c0 3 -1 6 -2 6c-3 -2 -6 -2 -17 -2zM30 494l-49 180h-154l101 -180h102z
" />
    <glyph glyph-name="uni1FAE" unicode="&#x1fae;" 
d="M752 340c0 -93 -37 -168 -103 -217h94v-123h-292v114c97 36 157 116 157 226c0 128 -85 224 -208 224s-208 -96 -208 -224c0 -110 61 -190 157 -226v-114h-292v123h94c-66 49 -103 124 -103 217c0 201 157 349 352 349s352 -148 352 -349zM345 -52h113v-24
c0 -11 8 -28 36 -28h19v-104c-11 -2 -42 -5 -57 -5c-88 0 -111 50 -111 123v38zM-117 419c-28 0 -49 22 -49 52s21 58 63 58c52 0 85 -32 85 -84c0 -60 -47 -95 -113 -111l-15 38c39 10 48 25 48 43c0 3 -1 6 -2 6c-3 -2 -6 -2 -17 -2zM-66 659c13 0 26 4 43 28l54 -40
c-21 -56 -61 -75 -91 -75c-24 0 -41 4 -58 10c-11 5 -29 12 -39 12c-7 0 -24 -2 -45 -30l-57 48c28 49 60 70 100 70c20 0 34 -6 50 -13c18 -8 38 -10 43 -10z" />
    <glyph glyph-name="uni1F68" unicode="&#x1f68;" 
d="M752 340c0 -93 -37 -168 -103 -217h94v-123h-292v114c97 36 157 116 157 226c0 128 -85 224 -208 224s-208 -96 -208 -224c0 -110 61 -190 157 -226v-114h-292v123h94c-66 49 -103 124 -103 217c0 201 157 349 352 349s352 -148 352 -349zM-69 569c-28 0 -49 22 -49 52
s21 58 63 58c52 0 85 -32 85 -84c0 -60 -47 -95 -113 -111l-15 38c39 10 48 25 48 43c0 3 -1 6 -2 6c-3 -2 -6 -2 -17 -2z" />
    <glyph glyph-name="uni1F6C" unicode="&#x1f6c;" 
d="M752 340c0 -93 -37 -168 -103 -217h94v-123h-292v114c97 36 157 116 157 226c0 128 -85 224 -208 224s-208 -96 -208 -224c0 -110 61 -190 157 -226v-114h-292v123h94c-66 49 -103 124 -103 217c0 201 157 349 352 349s352 -148 352 -349zM-288 570c-28 0 -49 22 -49 52
s21 58 63 58c52 0 85 -32 85 -84c0 -60 -47 -95 -113 -111l-15 38c39 10 48 25 48 43c0 3 -1 6 -2 6c-3 -2 -6 -2 -17 -2zM-126 674l-49 -180h102l101 180h-154z" />
    <glyph glyph-name="uni1F6A" unicode="&#x1f6a;" 
d="M752 340c0 -93 -37 -168 -103 -217h94v-123h-292v114c97 36 157 116 157 226c0 128 -85 224 -208 224s-208 -96 -208 -224c0 -110 61 -190 157 -226v-114h-292v123h94c-66 49 -103 124 -103 217c0 201 157 349 352 349s352 -148 352 -349zM-286 570c-28 0 -49 22 -49 52
s21 58 63 58c52 0 85 -32 85 -84c0 -60 -47 -95 -113 -111l-15 38c39 10 48 25 48 43c0 3 -1 6 -2 6c-3 -2 -6 -2 -17 -2zM30 494l-49 180h-154l101 -180h102z" />
    <glyph glyph-name="uni1F6E" unicode="&#x1f6e;" 
d="M752 340c0 -93 -37 -168 -103 -217h94v-123h-292v114c97 36 157 116 157 226c0 128 -85 224 -208 224s-208 -96 -208 -224c0 -110 61 -190 157 -226v-114h-292v123h94c-66 49 -103 124 -103 217c0 201 157 349 352 349s352 -148 352 -349zM-117 419c-28 0 -49 22 -49 52
s21 58 63 58c52 0 85 -32 85 -84c0 -60 -47 -95 -113 -111l-15 38c39 10 48 25 48 43c0 3 -1 6 -2 6c-3 -2 -6 -2 -17 -2zM-66 659c13 0 26 4 43 28l54 -40c-21 -56 -61 -75 -91 -75c-24 0 -41 4 -58 10c-11 5 -29 12 -39 12c-7 0 -24 -2 -45 -30l-57 48c28 49 60 70 100 70
c20 0 34 -6 50 -13c18 -8 38 -10 43 -10z" />
    <glyph glyph-name="onehalf" unicode="&#xbd;" horiz-adv-x="243" 
d="M125 173c-46 0 -85 35 -85 85c0 49 39 84 85 84c45 0 84 -35 84 -84c0 -50 -39 -85 -84 -85z" />
    </font>
</defs>
</svg>
